<?xml version="1.0" standalone="no"?>
<!DOCTYPE svg PUBLIC "-//W3C//DTD SVG 1.1//EN" "http://www.w3.org/Graphics/SVG/1.1/DTD/svg11.dtd" >
<svg xmlns="http://www.w3.org/2000/svg" xmlns:xlink="http://www.w3.org/1999/xlink" version="1.1">
<metadata>
Created by FontForge 20201107 at Sat Jul 31 04:32:51 2021
 By Unknown
</metadata>
<defs>
<font id="jkiticon" horiz-adv-x="1024" >
  <font-face 
    font-family="jkiticon"
    font-weight="400"
    font-stretch="normal"
    units-per-em="1024"
    panose-1="2 0 5 3 0 0 0 0 0 0"
    ascent="960"
    descent="-64"
    bbox="-1 -64 1027 960"
    underline-thickness="0"
    underline-position="0"
    unicode-range="U+EED7-F001"
  />
<missing-glyph 
 />
    <glyph glyph-name=".notdef" 
 />
    <glyph glyph-name="weight-solid" unicode="&#xeed7;" 
d="M128 768v-640h768v640h-768zM192 704h640v-512h-640v512zM512 640q-39 0 -78 -7t-67.5 -17t-51 -20.5t-33.5 -17.5l-12 -7l-25 -17l16 -26l96 -160l9 -16h292l9 16l96 160l16 26l-25 17q-12 8 -33 19.5t-84 30.5t-125 19zM512 576q97 0 179 -45l-68 -115h-59l41 82
l-58 28l-55 -110h-91l-68 115q82 45 179 45z" />
    <glyph glyph-name="weixin" unicode="&#xeed8;" 
d="M448 800q-131 0 -225.5 -79t-94.5 -193q0 -73 48 -140l-12 -93l-7 -56l51 22l80 33q62 -30 133 -36q17 -71 83.5 -116.5t151.5 -45.5q65 0 126 33l38 -22l55 -30l-8 62l-7 58q36 52 36 104q0 60 -36.5 109t-95.5 75q4 20 4 43q0 114 -94.5 193t-225.5 79zM448 736
q107 0 181.5 -61.5t74.5 -146.5q0 -13 -2 -25q-23 4 -46 4q-92 0 -161 -53t-78 -132q-63 6 -114 35l-14 7l-14 -6l-41 -17l7 49l1 14l-8 10q-42 52 -42 114q0 85 74.5 146.5t181.5 61.5zM338 667q-19 0 -32 -13t-13 -32t13 -32.5t32 -13.5t32 13.5t13 32.5t-13 32t-32 13z
M552 667q-19 0 -32.5 -13t-13.5 -32t13.5 -32.5t32.5 -13.5t32 13.5t13 32.5t-13 32t-32 13zM656 443q74 0 125 -42.5t51 -99.5q0 -42 -29 -77l-9 -11l2 -13l1 -6l-15 8l-16 -11q-48 -31 -110 -31q-74 0 -125 42t-51 99t51 99.5t125 42.5zM576 402q-14 0 -24.5 -10
t-10.5 -24t10.5 -24t24.5 -10t24 10t10 24t-10 24t-24 10zM737 402q-14 0 -24 -10t-10 -24t10 -24t24 -10t24 10t10 24t-10 24t-24 10z" />
    <glyph glyph-name="whatsapp-square" unicode="&#xeed9;" 
d="M160 800v-704h704v704h-704zM224 736h576v-576h-576v576zM512 672q-94 0 -159 -65t-65 -159q0 -59 32 -112l-32 -112l112 29q48 -29 112 -29q94 0 159 65t65 159t-65 159t-159 65zM512 624q72 0 124 -52t52 -124t-52 -124t-124 -52q-42 0 -86 22l-16 10l-20 -6l-32 -10
l10 32l6 19l-9 16q-26 41 -26 90q-2 74 49.5 126.5t123.5 52.5zM442 541q-10 0 -13 -7q-19 -9 -19 -41q0 -15 7 -31t12 -20q0 -1 5 -7.5t12 -15t17 -18.5t24 -20t28 -16q42 -17 61 -13q31 10 35 26q1 3 2 10q2 7 3 8q1 0 2 -2q0 1 -10 6q-32 16 -35 16q-2 0 -5.5 0.5t-5 0
t-2.5 -3.5q-2 -2 -8 -10t-8 -9q-3 -4 -10 0q-17 8 -28 15.5t-22 18.5t-20 26q-1 5 0.5 7.5t6.5 8.5t9 13q1 2 1 3.5t-0.5 3.5t-0.5 3q-5 5 -16 38q-6 10 -13 10h-9z" />
    <glyph glyph-name="whatsapp" unicode="&#xeeda;" 
d="M784 720q-54 54 -124 83t-146 29q-104 0 -192 -51t-139.5 -139.5t-51.5 -191.5t51 -191l-54 -199l203 54q85 -47 183 -47q103 0 191 51.5t139.5 139.5t51.5 192q0 50 -13 98.5t-38 92t-61 79.5zM514 132q-88 0 -162 44l-12 7l-120 -32l32 118l-8 12q-48 77 -48 169
q0 86 42.5 159t116 115.5t159.5 42.5q131 0 224 -93t93 -224q0 -87 -42.5 -160t-115.5 -115.5t-159 -42.5zM688 370q-54 27 -65 31q-15 5 -22 -5q-8 -13 -30 -38q-8 -8 -21 -2q-1 1 -7.5 3.5t-13 6t-15.5 8.5t-19.5 12.5t-21.5 17.5q-30 27 -53 66q-5 9 4 19q2 1 15 17
q3 4 9 16q4 7 0 17q-2 2 -7 15t-12.5 31t-10.5 25q-2 3 -3.5 6t-3 5t-3 3t-3.5 1.5t-3 0.5h-3h-3h-18q-14 0 -25 -12q-34 -36 -34 -79q0 -47 39 -99l4 -5t8 -11t11.5 -15t15.5 -18.5t18.5 -20t22.5 -20.5t25 -20t28 -19t31 -15q25 -11 54 -20q27 -9 60 -4q10 1 23 7.5
t25.5 17t16.5 20.5q12 34 5 45q-1 3 -18 12z" />
    <glyph glyph-name="wheelchair-solid" unicode="&#xeedb;" 
d="M640 864q-39 0 -67.5 -28.5t-28.5 -67.5t28.5 -67.5t67.5 -28.5t67.5 28.5t28.5 67.5t-28.5 67.5t-67.5 28.5zM640 800q14 0 23 -9t9 -23t-9 -23t-23 -9t-23 9t-9 23t9 23t23 9zM465 711l-115 -13q-29 -3 -46 -29l-80 -124l54 -34l80 123l73 8l-47 -133
q-82 -12 -137 -74.5t-55 -146.5q0 -93 65.5 -158.5t158.5 -65.5t158.5 65.5t65.5 158.5q0 11 -3 32h41l43 -195l62 14l-42 195q-5 22 -22.5 36t-40.5 14h-60q-18 39 -53 70l37 103q12 33 -1 66.5t-44 50.5l-54 29q-19 10 -38 8zM497 634l30 -16q24 -13 15 -39l-32 -88
q-28 13 -59 18zM416 448q67 0 113.5 -46.5t46.5 -113.5t-46.5 -113.5t-113.5 -46.5t-113.5 46.5t-46.5 113.5t46.5 113.5t113.5 46.5z" />
    <glyph glyph-name="whmcs" unicode="&#xeedc;" 
d="M474 832l-20 -90l-38 -9l-64 67l-61 -35l26 -93l-26 -26l-93 26l-35 -61l67 -67l-9 -32l-93 -26v-70l93 -26l9 -38l-64 -64l32 -61l96 26l23 -29l-29 -86l64 -39l64 67l35 -9l23 -93h73l23 93l38 9l67 -67l64 39l-29 89l26 26l93 -26l32 64l-67 61l6 38l96 23v67l-83 29
l13 -35l3 -13l-10 -7l-35 -19l-10 -6l-9 9l-29 32h-3l-10 -41l-3 -13h-35q-6 -30 -22.5 -56t-39.5 -44.5t-52.5 -29.5t-61.5 -11q-76 0 -129.5 54t-53.5 129q0 63 41.5 112t102.5 64v32l10 3l42 13l-36 35l7 9l19 32l6 10l10 -6l38 -10l-19 80h-73zM672 832l-10 -45l-22 -6
l-32 35l-32 -19l13 -48l-16 -13l-48 13l-19 -32l35 -35l-3 -16l-48 -13v-39l51 -12l3 -23l-38 -35l19 -32l51 13l13 -16l-13 -45l35 -19l32 35l19 -6l13 -48h39l12 48l20 6l35 -38l35 22l-19 48l13 13l48 -16l16 35l-36 32l4 22l54 13v35l-48 16l-3 20l35 35l-16 32l-54 -13
l-13 13l13 48l-32 19l-36 -35l-19 6l-13 45h-38zM691 726q27 0 49 -13t34.5 -35t12.5 -48q1 -20 -6 -37.5t-20 -30.5t-31.5 -20.5t-38.5 -7.5q-26 0 -48.5 13.5t-35 35.5t-12.5 47q0 41 28.5 68.5t67.5 27.5z" />
    <glyph glyph-name="wifi-solid" unicode="&#xeedd;" 
d="M512 736q-118 0 -224 -45.5t-186 -127.5l45 -45q71 73 165.5 113.5t199.5 40.5t199.5 -40.5t165.5 -113.5l45 45q-80 82 -186 127.5t-224 45.5zM512 576q-174 0 -297 -126l45 -45q104 107 252 107t252 -107l45 45q-123 126 -297 126zM512 416q-108 0 -184 -79l45 -45
q57 60 139 60t139 -60l45 45q-76 79 -184 79zM512 256q-42 0 -71 -32l71 -71l71 71q-29 32 -71 32z" />
    <glyph glyph-name="wikipedia-w" unicode="&#xeede;" 
d="M960 665q0 -10 -10 -10h-54l-244 -519q-2 -5 -8.5 -5t-9.5 5l-115 230l-125 -230q-3 -5 -9 -5t-9 5l-246 519h-56q-10 0 -10 10v27q0 9 10 9h199q10 0 10 -9v-27q0 -10 -10 -10h-43l170 -392l89 165l-113 227h-27q-10 0 -10 10v26q0 10 10 10h147q10 0 10 -10v-26
q0 -10 -10 -10h-26l65 -141l77 141h-47q-10 0 -10 10v26q0 10 10 10h143q10 0 10 -10v-26q0 -10 -10 -10h-32l-112 -204l92 -188l176 392h-56q-10 0 -10 10v26q0 10 10 10h174q10 0 10 -10v-26z" />
    <glyph glyph-name="wind-solid" unicode="&#xeedf;" 
d="M512 864q-77 0 -138 -48.5t-80 -122.5q-62 -24 -89 -85q-83 6 -144 -51.5t-61 -140.5q0 -79 56.5 -135.5t135.5 -56.5v64q-53 0 -90.5 37.5t-37.5 90.5t37.5 90.5t90.5 37.5q13 0 28 -3l32 -7l6 31q6 26 25.5 46t46.5 26l21 5l3 22q9 58 54 97t104 39q45 0 83.5 -23.5
t59.5 -64.5l12 -25l27 9q23 8 42 8q53 0 90.5 -37.5t37.5 -90.5v-4q-1 -4 -1 -6l-2 -23l21 -9q24 -10 41.5 -28t27 -41.5t9.5 -48.5q0 -53 -37.5 -90.5t-90.5 -37.5h-81q12 -14 21.5 -30t16.5 -34h43q79 0 135.5 56.5t56.5 135.5q0 52 -26 96.5t-70 69.5q-3 78 -58.5 132
t-133.5 54q-18 0 -38 -4q-31 47 -80 73.5t-106 26.5zM496 576q-56 0 -90 -45l52 -38q14 19 38 19q20 0 34 -14t14 -34t-14 -34t-34 -14h-208v-64h208q46 0 79 33t33 79t-33 79t-79 33zM256 288v-64h96q14 0 23 -9t9 -23t-9 -23t-23 -9q-18 0 -28 16l-55 -32q13 -22 35 -35
t48 -13q39 0 67.5 28.5t28.5 67.5q0 15 -6 32h166q27 0 45.5 -18.5t18.5 -45.5t-18.5 -45.5t-45.5 -18.5q-21 0 -37.5 12t-22.5 31l-61 -21q9 -25 27 -44.5t42.5 -30.5t51.5 -11q53 0 90.5 37.5t37.5 90.5t-37.5 90.5t-90.5 37.5h-352z" />
    <glyph glyph-name="window-close-solid" unicode="&#xeee0;" 
d="M160 800v-704h704v704h-704zM224 736h576v-576h-576v576zM374 630l-45 -45l137 -137l-139 -139l45 -45l139 139l138 -138l45 45l-138 138l136 136l-45 45l-136 -136z" />
    <glyph glyph-name="window-close" unicode="&#xeee1;" 
d="M160 800v-704h704v704h-704zM224 736h576v-576h-576v576zM374 630l-45 -45l137 -137l-139 -139l45 -45l139 139l138 -138l45 45l-138 138l136 136l-45 45l-136 -136z" />
    <glyph glyph-name="window-maximize-solid" unicode="&#xeee2;" 
d="M160 800v-704h704v704h-704zM224 736h576v-576h-576v576zM288 640v-384h448v384h-448zM352 576h320v-64h-320v64zM352 448h320v-128h-320v128z" />
    <glyph glyph-name="window-maximize" unicode="&#xeee3;" 
d="M160 800v-704h704v704h-704zM224 736h576v-576h-576v576zM288 640v-384h448v384h-448zM352 576h320v-64h-320v64zM352 448h320v-128h-320v128z" />
    <glyph glyph-name="window-minimize-solid" unicode="&#xeee4;" 
d="M160 800v-704h704v704h-704zM224 736h576v-576h-576v576zM288 320v-64h448v64h-448z" />
    <glyph glyph-name="window-minimize" unicode="&#xeee5;" 
d="M160 800v-704h704v704h-704zM224 736h576v-576h-576v576zM288 320v-64h448v64h-448z" />
    <glyph glyph-name="window-restore-solid" unicode="&#xeee6;" 
d="M160 800v-704h704v704h-704zM224 736h576v-576h-576v576zM384 672v-128h-96v-320h352v128h96v320h-352zM448 608h224v-32h-224v32zM448 512h224v-96h-224v96zM352 480h32v-33h-32v33zM352 383h32v-31h192v-64h-224v95z" />
    <glyph glyph-name="window-restore" unicode="&#xeee7;" 
d="M160 800v-704h704v704h-704zM224 736h576v-576h-576v576zM384 672v-128h-96v-320h352v128h96v320h-352zM448 608h224v-32h-224v32zM448 512h224v-96h-224v96zM352 480h32v-33h-32v33zM352 383h32v-31h192v-64h-224v95z" />
    <glyph glyph-name="windows" unicode="&#xeee8;" 
d="M864 800l-704 -96v-512l704 -96v704zM800 727v-247h-320v203zM416 674v-194h-192v168zM224 416h192v-194l-192 26v168zM480 416h320v-247l-320 44v203z" />
    <glyph glyph-name="wine-bottle-solid" unicode="&#xeee9;" 
d="M480 864q-26 0 -45 -19t-19 -45v-54q-3 -10 0 -19v-101l-25 -17q-33 -22 -52 -58t-19 -76v-17q-3 -9 0 -19v-205q-3 -10 0 -19v-183h384v186q1 6 0 13v211q1 7 0 13v20q0 40 -19 76t-52 58l-25 17v104q1 6 0 13v57q0 26 -19 45t-45 19h-64zM480 800h64v-32h-64v32z
M480 704h64v-113l14 -10l39 -26q39 -26 42 -75h-254q3 49 42 75l39 26l14 10v113zM384 416h256v-160h-256v160zM384 192h256v-96h-256v96z" />
    <glyph glyph-name="wine-glass-alt-solid" unicode="&#xeeea;" 
d="M262 800l-5 -25q-33 -151 -33 -231q0 -110 74 -192t182 -94v-130h-160v-64h384v64h-160v130q108 12 182 94t74 192q0 36 -8 93.5t-16 97.5l-9 40l-5 25h-500zM315 736h394q11 -57 17 -96h-374v-64h382q2 -22 2 -32q0 -93 -65.5 -158.5t-158.5 -65.5t-158.5 65.5
t-65.5 158.5q0 53 27 192z" />
    <glyph glyph-name="wine-glass-solid" unicode="&#xeeeb;" 
d="M266 800l-10 -19q-15 -33 -23.5 -76.5t-8.5 -96.5q0 -72 34 -135t92.5 -102.5t129.5 -47.5v-195h-160v-64h384v64h-160v195q109 12 182.5 93.5t73.5 191.5q0 103 -32 173l-6 19h-496zM307 736h410q6 -19 10.5 -40t6.5 -43t2 -45q0 -98 -74 -166l-3 -4l-3 -3t-3 -2t-3 -1
q-2 -1 -3.5 -2t-2.5 -2t-1 -2q-1 -2 -4.5 -3.5t-5 -3t-4.5 -3.5t-5 -3l-6 -3l-13 -7l-7 -3q-3 -3 -12 -3q-2 0 -4 -2l-3 -1q-1 0 -6 -2t-7 -2q-3 0 -6 -3h-48q-94 0 -159 65.5t-65 158.5v48z" />
    <glyph glyph-name="wix" unicode="&#xeeec;" 
d="M706 642q-8 0 -15.5 -0.5t-11.5 -0.5l-4 -1l128 -192l-128 -189q1 0 3.5 -0.5t9 -1t12.5 -0.5t14.5 1t16 3t15 5.5t12.5 8.5t9 9.5t11 14t13 18t20.5 29t26.5 38.5q5 7 9.5 7t7.5 -3l3 -4q17 -23 36 -50t28 -38.5t19 -20.5q13 -10 33.5 -14t35.5 -3l14 1l-128 189
l125 192q-2 0 -6 0.5t-15 1t-20.5 -0.5t-20.5 -5.5t-18 -11.5q-26 -26 -83 -112q-10 -16 -20 0q-6 9 -17 25t-15.5 22t-12.5 17.5t-11.5 16t-9 11.5t-9.5 11.5t-8 8.5q-6 6 -15 10t-17 5.5t-17 2.5zM13 640h-3h-3.5h-3h-3.5l102 -384q32 0 48 6q6 3 10.5 5.5t8.5 6t7.5 8.5
t6.5 12t6 16.5t6 22.5q6 19 17 65t20.5 84.5t10.5 42.5q5 17 11.5 17t11.5 -17q1 -4 10 -41.5t20.5 -84t17.5 -66.5q9 -37 18 -50t26 -21q9 -4 22 -5.5t21 -1.5l9 1l102 384q-29 3 -53.5 -12t-26.5 -42l-54 -205l-45 166q-15 74 -74 74q-21 0 -35 -8t-23 -24t-15 -42
l-45 -166l-55 205q-6 25 -26.5 39t-46.5 15zM627 640h-2.5t-7 -0.5t-10.5 -1t-11 -2l-10 -2.5q-10 -5 -15.5 -14t-8 -24t-2.5 -39q10 9 26 16q14 5 23.5 12.5t13 18t4 16.5t0.5 16v4zM624 576v-2q1 2 0 2zM624 574q-1 -2 -3 -4.5t-6.5 -5t-9.5 -4.5q-5 -3 -10.5 -5.5t-9 -4
t-9.5 -3.5q-5 -2 -8 -4t-5.5 -5.5t-3.5 -5.5t-1.5 -8t-0.5 -8v-11v-12v-237q3 0 7.5 -0.5t15.5 1t18 5.5q17 7 21.5 20.5t4.5 50.5v241z" />
    <glyph glyph-name="wizards-of-the-coast" unicode="&#xeeed;" 
d="M509 765q-42 0 -87 -5.5t-62.5 -9.5t-33.5 -8q12 -2 19.5 -6t16.5 -13h3q9 3 27.5 7.5t61 10t87.5 5.5q104 0 196 -32t154 -83t97.5 -115t35.5 -129v-16q0 -3 1 -2l2 2v32q-1 42 -20 89.5t-60.5 96t-99.5 87.5t-146.5 64t-191.5 25zM547 730q-92 0 -180.5 -24t-146.5 -54
t-112 -70t-74 -59.5t-34 -36.5q-2 0 0 -3q38 -10 81 -35t87.5 -63.5t83.5 -97.5t62 -127h3q73 91 170.5 148t206.5 57q92 0 150 -39.5t58 -88.5q0 -23 -8 -41.5t-27 -32.5q19 14 32 34.5t13 42.5q0 16 -5 31t-9 22l-5 8q6 -6 10 -12.5t5 -9.5l1 -4q4 29 14.5 53.5t18.5 35.5
l8 10l-9 29q9 -9 15.5 -29.5t6.5 -37.5q0 -13 -5 -26t-14 -22q26 13 26 58q0 7 -1 14t-2 11.5t-1.5 8.5t-1.5 5l-1 2q13 13 26 19q0 -2 0.5 -6.5t1.5 -8.5t1 -7q1 -2 3 0v26l16 6q-11 87 -76.5 159t-168 113.5t-219.5 41.5zM480 717l-32 -99q52 29 102 43t109 14
q34 -1 70 -9t75 -26t72 -43.5t60.5 -64t42.5 -84.5q-6 18 -17.5 40t-37 52.5t-57.5 55t-83.5 42t-111.5 18.5q-41 2 -80.5 -7t-68 -21.5t-62.5 -32.5l137 16l-150 -35l42 -32l-7 26q51 12 106 12l-35 -128q10 0 17 4.5t10 12t5 19.5l6 3v-42q-70 -13 -80 -16l22 71l-99 57
l3 -13l16 -6q3 -7 6.5 -17t6.5 -19.5t7 -19.5t6.5 -17.5t4 -13t1.5 -6.5q5 -10 20 -6l3 -7q-13 -3 -64 -22l-3 6q12 7 9 20q-35 91 -35 96l3 6l55 -109q-7 20 -52 125l-67 -141l7 23l-58 67l45 -151l-19 -12q-30 26 -74 67q-74 67 -87.5 78.5t-19.5 10.5h-2q-4 0 -9.5 -2
t-9.5 -5l-3 -2l-7 9q28 23 93 68l7 -13q-10 -7 -13 -13q-6 -9 2 -20t48 -52l11 -11l11 -11l13.5 -13.5t13.5 -14.5l-29 93l64 16l42 -48l6 19l-6 39l22 6v-6l7 16l-154 -39l19 7l-22 67l29 16l48 -58l44 23q-1 5 -2 11t-2 11.5t-2 9.5l29 -23l6 4l-96 67l39 -19l32 10t19 6
l3 -16q-7 -7 -7.5 -12.5t2.5 -8.5t8 -6.5t7 -4.5l-23 99l19 -45l13 3l3 -13q-1 0 -9 -3l13 -32zM333 634l16 -13q-7 0 -19 -3l-4 12q4 0 7 4zM647 587q14 1 24 -1t17 -8t10 -18v-19q0 -1 -2 -17t-2 -22v-32q0 -6 4 -9l9 -3q6 0 9 2t4 5v2q6 87 6 90t-1.5 4.5t-2.5 1.5h-2v13
q1 0 2 -0.5t4.5 -1t7 -1.5t8 -2t8.5 -2.5l8 -3t7 -2.5l-3 -29q16 16 25 16q3 1 6 0t6 -3t5.5 -4t3.5 -4l2 -1l-20 -20q-19 10 -32 0q-8 -45 -7.5 -57t14.5 -16v-7q-29 10 -58 13q-9 2 -17 2t-15 1q-3 5 -3.5 6.5l-1 3t-1.5 3.5q-3 0 -6 -1.5t-7 -4t-6 -3.5q-7 -4 -16 -4
q-20 -3 -29 16q-6 13 -2.5 28t11.5 24q6 5 24 13.5t21 14.5q10 12 -7 20q-21 8 -41 -10h-3l10 26h7.5t7 0.5t8 0.5h6.5zM861 582q7 -5 12 -9.5t9.5 -8.5t6.5 -6.5t7 -7.5q-8 -23 -21 -58q-25 -71 -17 -76l-4 -6q-4 3 -28 12l3 10q-7 -6 -16 -6q-24 0 -29 29.5t13 53.5
q7 10 15.5 15.5t16 5.5t14 -4t8.5 -11l13 42q2 6 0 10.5t-6 8.5zM549 570q-36 0 -47 -32l36 -29l19 61h-1.5h-3h-3.5zM662 531q-19 -9 -22 -16q-3 -3 -6 -7t-5 -9t-2 -9q0 -16 16 -16t16 9zM835 518q-5 1 -10.5 -4.5t-9 -15.5t-5.5 -18l-4 -16v-5.5v-6.5t1 -5t3 -4t6 -1
q3 -2 6.5 -1t7 5t8 16.5t10.5 33.5q3 8 -0.5 14t-12.5 8zM410 515l19 -112l-19 -9l-39 44l23 42l6 -6l-6 12zM896 470q10 2 19.5 -4.5t14.5 -13.5l4 -7l-12 -13l-4 3q0 1 2 5t2 8q0 13 -11 14q-9 1 -9 -8q0 -2 6.5 -19.5t6.5 -24.5q0 -12 -6 -19t-16 -7q-6 0 -14 4t-13 8
l-5 4l6 22l3 -3q-2 -21 13 -24q10 -2 11 9q0 2 -2 6q-27 54 4 60zM627 438q0 -6 3 -9q-6 6 -25 0q0 -1 1.5 -7t1.5 -9q4 1 7 1t3.5 0.5t1.5 0.5t4 1v-10q-1 3 -5.5 1.5t-10.5 -1.5q0 -1 1.5 -9t1.5 -10q16 0 23 5v-5q-10 0 -36 -6v6q-6 26 -6 42q0 3 -3 6q16 3 38 3z
M691 437q8 0 16 -5q3 0 3 -10q-7 13 -19.5 10t-15.5 -19q-1 -14 5 -20.5t14 -5t13 9.5q0 -2 -0.5 -4t-1.5 -4l-1 -2q-13 -8 -28.5 1.5t-13.5 27.5q2 6 5.5 11t10 8t13.5 2zM566 432q-3 -3 0 -6q2 -5 5 -21t5 -21q3 -7 6 -10q-6 -3 -16 -3v7q-6 12 -6 22q-6 0 -19 -6
q0 -2 3 -10.5t3 -12.5q0 -1 1.5 -3t1.5 -3q-2 -2 -8 -3.5t-8 -3.5q4 4 0 7q-1 3 -7.5 22t-8.5 23q0 3 -3 6q3 1 5.5 2t5.5 2t5 2v-6q2 -3 3.5 -8.5t3.5 -7.5q3 1 10 3t9 3l-3 16l-4 7q7 3 16 3zM741 430l8 -1q11 -2 15 -11.5t1 -20.5q-5 -21 -29 -16q-10 2 -15.5 11t-0.5 21
q7 16 21 17zM749 426q-16 0 -19 -16q-2 -5 -1.5 -10t3.5 -9t7 -4q11 -5 19 16q3 11 -0.5 17t-8.5 6zM790 416q1 0 3 -0.5t3.5 -1t3.5 -1t3 -0.5l-3 -42q3 -3 3 -6q-3 0 -13 3l4 3v13q-7 3 -13 3q-2 -1 -3.5 -4.5t-3.5 -4.5v-7q-1 0 -4.5 1.5t-4.5 1.5l3 4q3 3 22 32v6z
M499 410l7 -7q-7 3 -20 -3q15 -38 17.5 -44.5t5.5 -6.5q-3 -2 -8 -3.5t-8 -3.5q3 4 -19 52q-13 -7 -16 -13l-4 9q39 20 45 20zM797 410q-10 -10 -10 -16q2 0 5 -2t5 -2v20zM834 399q3 0 6.5 -2.5t4.5 -6.5v-6q0 4 -2.5 7t-5.5 3.5t-5 -0.5q-1 -3 -0.5 -4l2 -4t1.5 -5
q3 -3 3 -16q-2 -7 -11 -7t-14 7l3 6q0 -10 7 -11q4 -1 6 5q5 5 -3 13q-8 7 -4 16q3 7 12 5zM864 384q13 -6 19 -13l-6 -9q-1 1 -2 3q0 1 -1 1l-4 2q-12 -25 -12 -26q-7 -6 0 -6l-10 6l3 4q3 4 8 14t8 14q-2 3 -3.5 3.5t-5.5 0.5zM429 378l6 -7h-9q-7 0 -20 -13v-3
q4 -3 10 -16q16 10 19 13q0 -3 3 -10q-6 0 -19 -9q16 -28 19 -26q-3 -3 -16 -9q1 1 1 2t-0.5 3t-2 4t-4 6t-5.5 8.5t-7.5 12t-9.5 15.5l-7 3q5 3 42 26zM702 357q-140 1 -267 -98v-3q7 -13 7 -32q72 65 149 92.5t145 22.5q69 -5 114.5 -36t45.5 -73q0 -19 -6 -32q5 11 9 32
q5 46 -42 82t-121 43q-17 2 -34 2zM365 334q21 3 35 -17q-1 0 0 -3t2.5 -8t1.5 -10.5t-3 -13t-11 -13.5q-15 -9 -27.5 -6.5t-20.5 12.5q-9 12 -7 27t14 24q8 7 16 8zM360 324q-5 -1 -8 -4l-2 -1.5t-3 -3t-2.5 -4t-1.5 -5v-6.5t2.5 -8.5t6.5 -9.5q6 -9 15.5 -12.5t19.5 2.5
q18 12 0 38q-15 15 -27 14z" />
    <glyph glyph-name="wolf-pack-battalion" unicode="&#xeeee;" 
d="M237 864q-10 -34 -13 -71t0 -65.5t6 -46.5t7 -28q11 4 22 14.5t18.5 26t0.5 36.5t-32 41q20 -6 35 -19t23 -28.5t10 -32.5q2 -16 -6.5 -31.5t-22.5 -26.5t-30 -18t-28 -7q-37 -2 -68 -33t-31 -63l35 16q-19 -58 -13 -93l42 10q-5 -8 -8 -17.5t-5 -17t-3 -19.5t-1.5 -18.5
t0.5 -19.5t1 -16.5t1.5 -16.5l1.5 -13l42 23l13 -58l38 10l16 -48l42 35l-32 -13l-13 54l-29 -9l-10 54l-44 -13q-9 57 22 119l-48 13q11 48 36.5 65.5t65.5 20.5q20 -63 -3 -131q27 -19 48 -39.5t34.5 -41t22.5 -37.5t13.5 -38t6.5 -32t4 -31t2 -24q2 -10 4 -33t4 -40
t6 -36.5t11 -32t17 -15.5v48l10 13l9 -20l16 26l19 -35l13 38l16 -25l10 19l9 -13v-48q10 4 17.5 16t11 31.5t6 36.5t4.5 40t3 33q1 5 2 18q2 23 4 37t10 41.5t20.5 48.5t37 47.5t57.5 50.5q-23 68 -3 131q21 -3 33.5 -6.5t28 -12t25.5 -25.5t15 -42l-48 -13q31 -62 23 -118
l-45 12l-16 -57l-29 13l-13 -55l-32 13l42 -35l13 45l38 -10l13 58l42 -23q0 7 1 22t1.5 28t0 28.5t-4.5 31t-11 28.5l41 -10q7 35 -12 93l38 -16q0 32 -31 63t-68 33q-10 1 -22 6t-24 13t-22 18t-15 22t-4 24q3 27 20.5 50t47.5 30q-25 -21 -32 -42t0.5 -36.5t18.5 -25.5
t22 -14q4 10 7 28t6 46.5t0 65.5t-13 71q-27 -16 -49.5 -35.5t-45 -48t-36.5 -68.5t-16 -88l-90 -58l-6 -150l166 90l13 -13l-29 -7l-70 -64l-26 10l-44 -80l-7 -192l35 -26l-51 -25l-51 25l35 26l-6 195l-45 80l-26 -9l-70 64l-29 6l13 13l160 -93l-6 150l-90 58
q-8 160 -147 240zM262 528q-54 -6 -73 -45q50 -14 70 -22q0 9 1.5 32t1.5 35zM730 528v-13.5t0.5 -14.5t1 -13.5t1 -13.5t0.5 -12q20 8 70 22q-6 12 -13.5 20t-17 13t-20 8t-22.5 4zM259 454q-43 -30 -48 -92q4 1 14 4.5t16 5.5t14.5 4t16.5 2q-13 30 -13 76zM733 454
q0 -46 -13 -76q6 0 12.5 -1t13 -3t11.5 -4t12.5 -4.5t11.5 -3.5q-5 62 -48 92zM275 378q-9 -24 -9 -55l38 10q-5 8 -14.5 22.5t-14.5 22.5zM304 333q0 -35 3 -51q26 6 35 12q-5 5 -11.5 11t-14.5 15t-12 13zM717 378q-5 -8 -14.5 -22.5t-14.5 -22.5l38 -10q0 31 -9 55z
M688 333q-4 -4 -12 -13t-14.5 -15t-11.5 -11q2 -1 4.5 -2.5t5.5 -2.5t5.5 -2t6.5 -2l6 -1.5t7 -1.5q3 16 3 51zM342 288l2 -6t1.5 -6.5t1 -7.5l1 -8t1.5 -7l25 16q-13 6 -32 19zM650 288q-19 -13 -32 -19l25 -16q2 6 3.5 18t3.5 17z" />
    <glyph glyph-name="won-sign-solid" unicode="&#xeeef;" 
d="M128 768l58 -192h-58v-64h77l19 -64h-96v-64h115l77 -256h64l64 256h128l64 -256h64l77 256h115v64h-96l19 64h77v64h-58l58 192h-64l-58 -192h-182l-48 192h-64l-48 -192h-182l-58 192h-64zM512 640l16 -64h-32zM269 512h147l-16 -64h-112zM480 512h64l16 -64h-96z
M608 512h147l-19 -64h-112zM307 384h77l-35 -140zM640 384h77l-42 -140z" />
    <glyph glyph-name="wordpress-simple" unicode="&#xeef0;" 
d="M512 864q-172 0 -294 -122t-122 -294t122 -294t294 -122t294 122t122 294t-122 294t-294 122zM512 795q13 0 26.5 -1t26.5 -3t25.5 -5t25 -7t24.5 -8.5t23 -10t22 -12t21.5 -13.5t20.5 -15t19 -16h-4q-17 0 -30 -8.5t-20 -22.5t-7 -31q0 -19 8 -36.5t25 -44.5
q8 -14 13 -25.5t10 -30.5t5 -39q0 -29 -26 -113l-35 -115l-130 401l40 3q14 1 13 15t-15 14q-1 0 -2.5 -0.5t-5.5 -0.5t-8.5 -0.5t-10.5 -1t-12 -0.5t-13.5 -0.5t-14 -0.5t-13.5 -0.5t-13 -0.5l-91 5q-5 0 -9 -3t-5 -7t-0.5 -8t4 -7.5t8.5 -3.5q18 -2 36 -3l59 -176
l-76 -228l-131 404l40 3q9 1 12 8.5t-1.5 14t-12.5 6.5q-54 -5 -91 -5q49 60 119.5 94.5t150.5 34.5zM816 614q43 -77 43 -166q0 -67 -25 -128.5t-68.5 -108t-101.5 -74.5q5 2 8 3.5l7 3.5t7 4l106 307q14 35 20 65t6 59q0 19 -2 35zM198 596l162 -460q-88 43 -141.5 126.5
t-53.5 185.5q0 77 33 148zM518 418l107 -292q1 -3 2 -5q-28 -9 -56.5 -14.5t-58.5 -5.5q-10 0 -20 1l-20 2t-20 2.5t-19.5 4t-18.5 5.5zM365 134q12 -5 27 -11q-14 5 -27 11zM653 131q-9 -4 -22 -8q11 3 22 8zM402 119q7 -2 11 -3q-2 0 -4 1t-3.5 1.5t-3.5 0.5z" />
    <glyph glyph-name="wordpress" unicode="&#xeef1;" 
d="M512 832q-159 0 -271.5 -112.5t-112.5 -271.5t112.5 -271.5t271.5 -112.5t271.5 112.5t112.5 271.5t-112.5 271.5t-271.5 112.5zM512 814q152 0 259 -107t107 -259t-107 -259t-259 -107t-259 107t-107 259t107 259t259 107zM512 777q-85 0 -157.5 -40t-117.5 -108h7h8h6
l88 4q8 0 12 -6t1 -13t-11 -8q-18 -3 -38 -4l120 -356l72 216l-51 140l-35 4q-8 0 -11 7t1 13.5t12 6.5q55 -4 87 -4l88 4q8 0 12 -6t1 -13t-11 -8q-18 -3 -38 -4l119 -354l33 110q25 64 25 107t-27 90q-32 52 -32 78q0 23 15.5 40.5t39.5 17.5h4q-94 86 -222 86zM801 606
q2 -14 2 -34q0 -55 -25 -118l-100 -291q75 44 119 119.5t44 165.5q0 85 -40 158zM211 582q-28 -63 -28 -134q0 -96 50.5 -175.5t134.5 -120.5zM518 419l-99 -287q44 -13 93 -13q58 0 109 18l-2 5z" />
    <glyph glyph-name="wpbeginner" unicode="&#xeef2;" 
d="M512 832q-158 0 -271 -94t-113 -226q0 -79 45 -154q-45 -39 -45 -102q0 -67 56 -113.5t136 -46.5q59 0 106.5 26t69.5 70h32q22 -44 69.5 -70t106.5 -26q80 0 136 46.5t56 113.5q0 19 -5 37.5t-15.5 35.5t-24.5 29q45 70 45 154q0 132 -113 226t-271 94zM512 768
q132 0 226 -75t94 -181q0 -14 -2 -29q0 -1 -1 -2v-2q-2 -14 -6 -25l-1 -4q-3 -9 -8 -22q-21 -46 -62 -82q36 -12 57.5 -36t22.5 -52q-1 -38 -38.5 -66.5t-89.5 -28.5q-38 0 -71 17t-47 44l-20 32h-108l-20 -35q-14 -27 -47 -44t-71 -17q-34 0 -64 13t-47 35.5t-17 47.5
q0 9 3 19q4 14 20 35q22 24 57 36q-26 22 -45 51q-17 27 -26 55q-4 12 -6 27l-0.5 1.5t-0.5 2.5q-2 15 -2 29q0 69 43 128t116.5 93.5t160.5 34.5zM320 576v-96h64v96h-64zM416 576v-96h256v96h-256zM352 442v-45q59 -57 141.5 -72t146.5 17v42q-35 -13 -72.5 -16t-75 4
t-73.5 24.5t-67 45.5z" />
    <glyph glyph-name="wpexplorer" unicode="&#xeef3;" 
d="M512 864q-173 0 -294.5 -121.5t-121.5 -294.5t121.5 -294.5t294.5 -121.5t294.5 121.5t121.5 294.5t-121.5 294.5t-294.5 121.5zM512 800q146 0 249 -103t103 -249t-103 -249t-249 -103t-249 103t-103 249t103 249t249 103zM358 640l-57 -138l137 -57l58 137zM512 557
l-45 -109l106 -44l3 -1l48 109zM640 490l-35 -87l86 -35l39 86zM458 429l-10 -19l35 -16l-80 -170h23l76 157l80 -157h23l-74 147l26 -9l9 22z" />
    <glyph glyph-name="wpforms" unicode="&#xeef4;" 
d="M160 800v-704h704v704h-704zM224 736h17l162 -138l109 96l109 -96l162 138h17v-576h-576v576zM343 736h122l-62 -54zM559 736h122l-60 -54zM288 544v-64h96v64h-96zM448 544v-64h288v64h-288zM288 416v-64h96v64h-96zM448 416v-64h288v64h-288zM576 288v-64h160v64h-160z
" />
    <glyph glyph-name="wpressr" unicode="&#xeef5;" 
d="M512 864q-173 0 -294.5 -121.5t-121.5 -294.5t121.5 -294.5t294.5 -121.5t294.5 121.5t121.5 294.5t-121.5 294.5t-294.5 121.5zM512 800q146 0 249 -103t103 -249t-103 -249t-249 -103t-249 103t-103 249t103 249t249 103zM339 608q-8 0 -13 -10q-6 -15 -14.5 -34
t-15.5 -34.5t-15.5 -34.5t-14.5 -34q-7 -16 -21.5 -46.5t-20.5 -46.5v-16q10 -10 27.5 -29t26.5 -29q7 -6 13 -6h221q2 0 4 1t4.5 3.5t4.5 5.5q8 19 24 55.5t24 56.5q5 9 16 9h109q7 0 11.5 3t7.5 10q7 16 18 40t19 42t19 40t21 41q4 13 -10 13h-208q-5 0 -7.5 -2.5
t-5.5 -7.5q0 -2 -3.5 -10t-10 -23t-11.5 -27q0 -4 6 -4h118q10 0 11 -8q-4 -12 -17 -14h-125q-1 0 -3 -2l-3 -1l-61 -135q-3 -4 -9 -5.5t-9.5 2.5t-0.5 13q6 14 19 44.5t19 45.5q3 4 0.5 8t-9.5 4h-74q-6 0 -10 -6l-48 -106q-2 -7 -11 -3t-5 13q10 29 26 61q5 10 28 64.5
t36 82.5q4 7 1 11.5t-11 4.5h-67z" />
    <glyph glyph-name="wrench-solid" unicode="&#xeef6;" 
d="M672 832q-93 0 -158.5 -65.5t-65.5 -158.5q0 -21 13 -64l-303 -304q-30 -30 -30 -73t30 -73t73 -30t73 30l304 303q42 -13 64 -13q93 0 158.5 65.5t65.5 158.5q0 48 -20 92l-19 42l-33 -32l-101 -102h-51v51l134 134l-42 19q-44 20 -92 20zM672 768q3 0 8 -1.5t8 -1.5
l-80 -80v-141h141l80 80q0 -3 1.5 -8t1.5 -8q0 -67 -46.5 -113.5t-113.5 -46.5q-33 0 -63 13l-20 8l-330 -329q-11 -12 -27.5 -12t-28 11.5t-11.5 28t12 27.5l329 330l-8 20q-13 30 -13 63q0 67 46.5 113.5t113.5 46.5z" />
    <glyph glyph-name="x-ray-solid" unicode="&#xeef7;" 
d="M160 800v-704h704v704h-704zM224 736h576v-576h-576v576zM480 704v-32h-96v-64h96v-32h-160v-64h160v-32h-128v-64h128v-82q-35 18 -48 18q-20 0 -34 -14t-14 -34t14 -34t34 -14q4 0 34.5 -16t45.5 -16t45.5 16t34.5 16q20 0 34 14t14 34t-14 34t-34 14q-13 0 -48 -18
v370h-64zM576 672v-64h64v64h-64zM576 576v-64h128v64h-128zM576 480v-64h96v64h-96z" />
    <glyph glyph-name="xbox" unicode="&#xeef8;" 
d="M512 832q-159 0 -271.5 -112.5t-112.5 -271.5t112.5 -271.5t271.5 -112.5t271.5 112.5t112.5 271.5t-112.5 271.5t-271.5 112.5zM512 768q2 0 5 -0.5t4 -0.5q20 -1 25 -1h2q2 0 5 -0.5t4 -0.5q2 0 6 -1q18 -3 36 -8q19 -5 38 -13q3 -1 8 -4t7 -4l20 -10t5 -3q3 -1 8 -6
q-23 14 -66 -3t-75 -40l-31 -23q-74 56 -122 69q-29 7 -47 0q2 1 7 4.5t8 5.5l1 1q8 4 26 12l1 1q8 4 18 7q1 0 17 5q23 7 25 7q1 0 4 0.5t4 0.5q10 2 21 3h3q19 2 33 2zM704 685q17 0 30 -8q1 -1 2 -1.5t2 -1.5q3 -2 5 -5q9 -9 13 -14q0 -1 1.5 -1.5t1.5 -1.5q2 -2 7 -9
q2 -3 11 -16q10 -15 16 -26q9 -16 13 -27l1 -1q1 -1 2 -3.5t1 -3.5q4 -11 8 -23q5 -17 8 -30q0 -1 0.5 -2t0.5 -2q5 -26 5 -61q0 -116 -73 -204q-3 -3 -8 -9q11 56 -4 103.5t-54 110.5q-21 33 -51.5 70.5t-50.5 58.5l-20 20q66 62 133 87zM316 683q31 -2 62 -22l2 -1
q19 -11 37.5 -26.5t28.5 -25.5l9 -10q-34 -32 -83 -97.5t-69 -113.5q-19 -48 -25 -87t-2 -54l4 -15q4 39 46.5 99.5t79.5 99.5q12 14 74 76l33 35l28 -28q56 -56 91 -96q46 -52 67 -82q44 -62 50 -102l-11 -11q-16 -16 -22 -21q-7 -6 -25 -18q-15 -10 -26 -16
q-18 -10 -21 -11q-1 0 -2 -1t-2 -1q-11 -5 -28 -10l-1 -1q-13 -4 -25 -7q-4 -1 -9 -2q-3 -1 -10 -1.5t-9 -0.5q-28 -4 -45 -4q-14 0 -34 2q-34 4 -62 12q-42 13 -84 41q-22 15 -46 39q-93 93 -93 226q0 125 86 218q14 17 36 17z" />
    <glyph glyph-name="xing-square" unicode="&#xeef9;" 
d="M160 800v-704h704v704h-704zM224 736h576v-576h-576v576zM628 672q-2 0 -4.5 -1t-4.5 -2.5t-4 -3.5t-4 -5q-26 -45 -50.5 -88.5t-40 -71.5t-28.5 -50t-19 -33t-7 -12l93 -169q7 -12 18 -12h65q6 0 8.5 4.5t-0.5 9.5l-91 167l144 253q1 4 0.5 7t-3 5t-6.5 2h-66zM354 576
q-6 0 -8.5 -4t0.5 -10l44 -75l-69 -121q-2 -5 0.5 -9.5t8.5 -4.5h64q11 0 18 13q19 33 36.5 64t25 44t8.5 14l-45 77q-2 3 -4 5t-4 3.5t-4.5 2.5t-5.5 1h-65z" />
    <glyph glyph-name="xing" unicode="&#xeefa;" 
d="M685 800q-22 0 -37 -13q-8 -7 -16 -21q-77 -137 -138 -245q-1 5 -4 10l-63 109q-7 13 -17 21q-16 13 -36 13h-93q-26 0 -40 -21q-13 -21 0 -46l1 -1l53 -93l-89 -157l-1 -1q-13 -24 1 -46q13 -21 40 -21h92q22 0 37 13q9 7 16 21q18 33 32 57q1 -3 3 -7l132 -242
q7 -13 17 -21q16 -13 37 -13h92q26 0 39 21q14 22 2 46l-1 1l-122 222l196 346q1 1 1 2q12 24 -1 45t-40 21h-93zM689 736h57l-188 -334q-7 -13 0 -31l1 -3l114 -208h-58l-1 1q-108 198 -122 225l196 349q0 1 1 1zM313 610h57l2 -2q40 -69 54 -94l-91 -161q0 -1 -1 -1h-57
l83 145q1 2 1 4q3 7 3 12q0 7 -3 13q-1 3 -2 4z" />
    <glyph glyph-name="y-combinator" unicode="&#xeefb;" 
d="M160 800v-704h704v704h-704zM224 736h576v-576h-576v576zM368 608l112 -192v-160h64v160l112 192h-64l-80 -137l-80 137h-64z" />
    <glyph glyph-name="yahoo" unicode="&#xeefc;" 
d="M235 767q25 -5 46 -5q6 0 13 0.5t12.5 1.5t10 1.5t7.5 1.5l3 1l185 -309l186 309q20 -7 46 -7q11 0 22 1.5t17 3.5l6 2l-238 -403l6 -300q-25 7 -45 7q-9 0 -20.5 -2t-18.5 -4l-7 -2l7 301z" />
    <glyph glyph-name="yammer" unicode="&#xeefd;" 
d="M204 767q-8 0 -15 -2q-8 -3 -14.5 -8t-10 -11.5t-4.5 -14t0 -14.5l166 -416q-17 -53 -38 -76t-58 -23h-22q-8 0 -15.5 -3t-13 -8.5t-6.5 -11.5q-3 -15 4 -27.5t21 -17.5q13 -3 39 -3q35 0 60 8.5t42.5 28t29 40t25.5 54.5l182 455q2 14 -4 27t-18 18q-15 5 -31 -2
t-21 -21l-128 -339h-3l-131 342q-11 23 -36 25zM794 702q-3 0 -5.5 -0.5t-4.5 -0.5l-3 -3q-44 -25 -119 -85q-60 -48 -51 -56q9 -6 45.5 6t78.5 31.5t84 42.5q12 10 13.5 25.5t-10.5 25.5q-2 4 -5.5 6.5t-7 4t-7.5 2.5t-8 1zM893 483q-35 0 -131 -14.5t-90 -26.5
q7 -14 77 -21.5t147 -7.5q11 1 19 7.5t11.5 15.5t1.5 18q-2 12 -10 19.5t-19 9.5h-6zM626 338q-4 0 -7 -0.5t-5 -1.5q-12 -8 64.5 -67t105.5 -74l3 -3q14 -5 27 3t18 23q5 24 -10 38q-57 31 -114.5 56t-81.5 26z" />
    <glyph glyph-name="yandex-international" unicode="&#xeefe;" 
d="M666 928l-180 -518l-160 422h-102l224 -595v-269h96v317l224 643h-102z" />
    <glyph glyph-name="yandex" unicode="&#xeeff;" 
d="M629 832h-112q-33 0 -62.5 -10.5t-54 -31.5t-42.5 -51t-28 -71.5t-10 -91.5q0 -158 120 -213l-150 -283q-3 -7 -0.5 -11.5t8.5 -4.5h69q9 1 12 7l141 281h40v-281q0 -7 7 -7h65q8 0 8 8v750q0 5 -3 7.5t-8 2.5zM560 416h-48q-44 0 -78 38t-34 122q0 92 32 142t80 50h48
v-352z" />
    <glyph glyph-name="yarn" unicode="&#xef00;" 
d="M512 864q-173 0 -294.5 -121.5t-121.5 -294.5t121.5 -294.5t294.5 -121.5t294.5 121.5t121.5 294.5t-121.5 294.5t-294.5 121.5zM512 800q146 0 249 -103t103 -249t-103 -249t-249 -103t-249 103t-103 249t103 249t249 103zM519 671q-7 -2 -14 -13.5t-11 -22.5l-4 -11
q-2 0 -5 0.5t-11 -0.5t-16 -3t-19 -8t-20 -15q-8 -8 -22 -12l-2 -2l-1.5 -1.5l-2 -2t-2.5 -3.5t-2 -5.5t-3 -8.5q-5 -15 -0.5 -29t11.5 -25l8 -10q-23 -17 -38 -38t-18.5 -38t-5.5 -32t1 -20q-27 -23 -27 -50.5t11 -42.5q3 -3 5.5 -4.5t4 -2t4 0l2.5 0.5l-3.5 -7t-3.5 -13
t7 -9q9 -5 19 -7t20 -0.5t16 7.5q4 5 7 11.5t6 16.5t3 11q1 1 2 -0.5t4.5 -5.5t9.5 -7q-1 -1 -2.5 -1.5t-5 -3.5t-5 -6.5t-3 -9t2.5 -11.5q6 -13 32 -13q13 0 51.5 3t50.5 7q4 1 7 2t4.5 2.5t3 2.5t1.5 2q44 12 87 38.5t70 32.5q15 2 13 17q-3 17 -29 15q-17 0 -33 -7
t-34 -19q-15 -9 -28.5 -14.5t-19 -5.5t-6.5 1t-0.5 3t1 7t1.5 10.5t1.5 13t0 15t-2 17t-5.5 17.5q-7 20 -18 34.5t-17.5 20t-5.5 6.5q1 2 8.5 13t12.5 19.5t11 23.5t9 30q8 69 -9 99q-2 3 -7 1.5t-11 -4.5l-5 -3q-19 42 -25 45q-3 2 -6 2z" />
    <glyph glyph-name="yelp" unicode="&#xef01;" 
d="M459 832q-36 -1 -94.5 -19t-73.5 -34q-13 -13 -9 -27l162 -256q24 -38 49 -30t23 52q-2 39 -10 162t-9 131q-4 16 -22 20q-6 1 -16 1zM698 605q-7 0 -13 -4t-79 -104l-32 -44q-13 -16 0 -37q14 -22 35 -17q13 5 39 11q137 33 141 36q12 8 11 27q-3 24 -34.5 71.5
t-52.5 57.5q-7 3 -15 3zM258 476q-15 1 -24 -14q-9 -14 -12.5 -52.5t-0.5 -71.5q3 -25 7 -33q8 -14 23 -15q7 0 126 38l51 16q21 5 22 30q1 26 -20 34l-36 15q-128 53 -136 53zM611 335q-16 0 -27 -13q-16 -20 -3 -40l20 -33q71 -116 79 -122q12 -9 27 -3q22 9 58 54.5
t39 68.5q2 17 -9 26q-5 4 -124 43q-50 17 -51 17q-5 2 -9 2zM471 299q-10 -2 -17 -11l-25 -30q-90 -105 -92 -112q-3 -7 -2 -12q1 -8 7 -15q15 -18 70 -38t78 -16q16 3 21 16q3 8 3 131v54q1 22 -21 31q-11 4 -22 2z" />
    <glyph glyph-name="yen-sign-solid" unicode="&#xef02;" 
d="M230 800l220 -352h-130v-64h160v-64h-160v-64h160v-160h64v160h160v64h-160v64h160v64h-130l220 352h-76l-206 -331l-206 331h-76z" />
    <glyph glyph-name="yin-yang-solid" unicode="&#xef03;" 
d="M512 832q-159 0 -271.5 -112.5t-112.5 -271.5t112.5 -271.5t271.5 -112.5h8l8 1q154 6 261 117.5t107 265.5q0 140 -90 246t-225 131q-26 7 -53 6q-2 0 -7.5 0.5t-8.5 0.5zM512 768q14 0 33 -2q2 0 6 -0.5t6 -0.5q1 0 3 -1q49 -11 80.5 -50t31.5 -90q0 -60 -42 -102
t-102 -42q-86 0 -147 -61t-61 -147q0 -51 23 -95q-69 43 -110 114.5t-41 156.5q0 133 93.5 226.5t226.5 93.5zM727 684q105 -96 105 -236q0 -130 -90 -222.5t-220 -96.5q-58 2 -98 43.5t-40 99.5q0 60 42 102t102 42q86 0 147 61t61 147q0 30 -9 60zM528 672q-20 0 -34 -14
t-14 -34t14 -34t34 -14t34 14t14 34t-14 34t-34 14zM528 320q-20 0 -34 -14t-14 -34t14 -34t34 -14t34 14t14 34t-14 34t-34 14z" />
    <glyph glyph-name="yoast" unicode="&#xef04;" 
d="M666 832l-160 -432l-90 240h-96l128 -304q6 -19 10 -35v-23q0 -9 -7 -22q-14 -29 -39.5 -45t-56.5 -16v-96q65 0 118 37t74 98l221 598h-102zM288 736q-53 0 -90.5 -37.5t-37.5 -90.5v-320q0 -53 37.5 -90.5t90.5 -37.5h29v32h-29q-40 0 -68 28.5t-28 67.5v320
q0 41 27.5 68.5t68.5 27.5h291l13 32h-304zM768 733l-10 -32q32 -7 53 -33.5t21 -59.5v-416h-266q-3 -5 -9.5 -16t-9.5 -16h317v448q0 45 -27 78.5t-69 46.5z" />
    <glyph glyph-name="youtube-square" unicode="&#xef05;" 
d="M160 800v-704h704v704h-704zM224 736h576v-576h-576v576zM512 605q-141 0 -175 -9q-32 -9 -40 -40q-4 -15 -6 -42.5t-3 -46.5v-19q0 -74 9 -109q8 -31 40 -39q34 -9 175 -9t175 9q32 9 40 39q4 16 6 43t3 46v20q0 73 -9 108q-4 15 -14.5 25.5t-25.5 14.5t-59 6.5t-80 2.5
h-36zM448 539l160 -91l-160 -91v182z" />
    <glyph glyph-name="youtube" unicode="&#xef06;" 
d="M512 768q-141 0 -292 -22q-41 -6 -70.5 -34t-36.5 -68q-17 -93 -17 -196t17 -196q7 -40 37 -68t70 -34q151 -22 292 -22t292 22q40 6 70 34t37 68q17 93 17 196q0 104 -17 196q-7 40 -36.5 68t-70.5 34q-151 22 -292 22zM512 704q138 0 283 -21q20 -3 34.5 -17t18.5 -34
q16 -87 16 -184t-16 -184q-4 -20 -18.5 -34t-34.5 -17q-145 -21 -283 -21t-283 21q-20 3 -34.5 17t-18.5 34q-16 87 -16 184t16 184q4 20 18.5 34t34.5 17q144 21 283 21zM416 631v-366l48 27l224 128l48 28l-48 28l-224 128zM480 521l127 -73l-127 -73v146z" />
    <glyph glyph-name="zhihu" unicode="&#xef07;" 
d="M980 672l-30 -6q-29 -4 -75.5 -8.5t-146.5 -13.5t-149 -10q6 -27 26 -32q10 -2 20 -2t27 1t33 1q17 1 36.5 2t29 1h23.5v-157h-198v-2.5t1 -5.5t3 -7.5t5 -8t6.5 -7.5t9.5 -5t13 -2h160v-109q0 -11 -5 -19t-13.5 -12t-19.5 -4t-31 1.5t-33 1.5q0 -1 2 -5l3.5 -7t4.5 -7
t7.5 -8.5t11.5 -7.5q13 -6 21.5 -8t19.5 -2q36 0 55 19.5t19 54.5v112h195q12 0 12 28l-2 7h-208v157h4.5t6 0.5l7 1t8.5 1t9 0.5q23 1 46.5 3t38.5 4t30.5 4t25.5 2q1 1 2 4.5t3 11.5t3 15t-1 13.5t-7 9.5q-2 1 -9 0zM106 672h-4.5t-10 -2t-13.5 -5.5t-13 -10.5t-11 -17
q-6 -26 -54 -122q37 0 58 35q1 4 4.5 8.5t6.5 10t5 10.5h48q0 -9 -2 -65t-2 -60h-83q-8 0 -14.5 -10.5t-8.5 -17t-2 -10.5h102q-5 -56 -32 -99.5t-80 -86.5q44 -13 83 13q4 3 11 10t22.5 34.5t24.5 61.5l80 -93q13 45 -3 64q-32 39 -55 58l-22 -20q1 6 4 15.5t4.5 14t3 12.5
t1.5 16h102q0 38 -13 38h-86q3 42 3 125h77q3 35 -13 35h-141q5 16 23 58zM288 608v-352h38l13 -42l67 42h74v352h-192zM937 570q-4 0 -8 -1.5t-7 -5.5l-58 -77l32 -22l74 93q-2 1 -5 3.5t-12 6.5t-16 3zM326 570h112v-276h-38l-45 -28l-9 28h-20v276zM644 565
q-6 0 -13.5 -2t-11.5 -4l-5 -2q64 -90 68 -93l32 22q-42 58 -58 74q-4 4 -12 5z" />
    <glyph glyph-name="activity-line" unicode="&#xef08;" 
d="M640 43q-15 0 -20 14l-236 708l-108 -324q-5 -14 -20 -14h-171q-4 0 -8 1.5t-7 4.5t-4.5 7t-1.5 8q0 6 3 11t8 7.5t10 2.5h156l123 370q2 6 7.5 10t12.5 4t12.5 -4t7.5 -10l236 -708l108 324q5 14 20 14h171q5 0 10 -2.5t8 -7.5t3 -11q0 -9 -6.5 -15t-14.5 -6h-156
l-123 -370q-5 -14 -20 -14z" />
    <glyph glyph-name="airplay-line" unicode="&#xef09;" 
d="M853 213h-42q-6 0 -11 3t-8 8t-3 11q0 8 6.5 14.5t15.5 6.5h42q27 0 45.5 19t18.5 45v427q0 17 -8.5 32t-23 23.5t-32.5 8.5h-682q-27 0 -45.5 -19t-18.5 -45v-427q0 -26 18.5 -45t45.5 -19h42q9 0 15.5 -6.5t6.5 -15t-6.5 -15t-15.5 -6.5h-42q-29 0 -53.5 14.5t-39 39
t-14.5 53.5v427q0 29 14.5 53.5t39 38.5t53.5 14h682q44 0 75.5 -31t31.5 -75v-427q0 -44 -31.5 -75.5t-75.5 -31.5zM725 43h-426q-14 0 -20 12q-1 2 -1.5 4.5t-0.5 5t1 4.5t2 4.5t2 4.5l214 256q6 7 16 7t16 -7l214 -256q8 -11 2.5 -23t-19.5 -12zM344 85h336l-168 202z
" />
    <glyph glyph-name="alert-circle-line" unicode="&#xef0a;" 
d="M512 0q-185 0 -316.5 131.5t-131.5 316.5t131.5 316.5t316.5 131.5t316.5 -131.5t131.5 -316.5t-131.5 -316.5t-316.5 -131.5zM512 853q-110 0 -203.5 -54t-147.5 -147.5t-54 -203.5q0 -82 32 -157t86.5 -129.5t129.5 -86.5t157 -32q110 0 203.5 54t147.5 147.5t54 203.5
q0 66 -20.5 128t-58 111.5t-87 87t-111.5 58t-128 20.5zM512 427q-6 0 -11 2.5t-7.5 7.5t-2.5 11v171q0 8 6 14.5t15 6.5q4 0 8 -1.5t7 -4.5t4.5 -7t1.5 -8v-171q0 -9 -6 -15t-15 -6zM512.5 256q-5.5 0 -10.5 3t-8 8t-3 10q0 9 6 15.5t15 6.5t15.5 -6.5t6.5 -15.5
q0 -5 -3 -10t-8 -8t-10.5 -3z" />
    <glyph glyph-name="alert-octagon-line" unicode="&#xef0b;" 
d="M689 0h-354q-9 0 -15 6l-250 250q-3 3 -4.5 7t-1.5 8v354q0 9 6 15l250 250q7 6 15 6h354q9 0 15 -6l250 -250q6 -7 6 -15v-354q0 -9 -6 -15l-250 -250q-3 -3 -7 -4.5t-8 -1.5zM344 43h336l237 237v336l-237 237h-336l-237 -237v-336zM512 427q-6 0 -11 2.5t-7.5 7.5
t-2.5 11v171q0 8 6 14.5t15 6.5q4 0 8 -1.5t7 -4.5t4.5 -7t1.5 -8v-171q0 -9 -6 -15t-15 -6zM512.5 256q-5.5 0 -10.5 3t-8 8t-3 10q0 9 6 15.5t15 6.5t15.5 -6.5t6.5 -15.5q0 -5 -3 -10t-8 -8t-10.5 -3z" />
    <glyph glyph-name="alert-triangle-line" unicode="&#xef0c;" 
d="M151 43q-14 0 -27.5 3.5t-25.5 10.5q-38 22 -49.5 64.5t10.5 81.5l362 603q13 23 36 36q37 23 80 12.5t66 -48.5l362 -603q7 -12 10.5 -25.5t3.5 -26.5q1 -45 -30 -76.5t-75 -31.5h-723zM457 784l-361 -603q-8 -16 -8.5 -32t8.5 -31t24 -24q7 -4 15 -6.5t16 -2.5h722
q27 1 45.5 20t17.5 45q0 8 -2 16t-6 15l-361 603q-7 11 -17 18.5t-23 10.5q-6 2 -12.5 2t-12.5 -1t-12 -3t-11 -5q-7 -4 -12.5 -9.5t-9.5 -12.5zM512 384q-9 0 -15 6.5t-6 14.5v171q0 4 1.5 8t4.5 7t7 4.5t8 1.5t8 -1.5t7 -4.5t4.5 -7t1.5 -8v-171q0 -8 -6 -14.5t-15 -6.5z
M512.5 213q-5.5 0 -10.5 3t-8 8t-3 11q0 9 6 15t15 6q6 0 11 -3t8 -8t3 -10.5t-3 -10.5t-8 -8t-10.5 -3z" />
    <glyph glyph-name="align-center-line" unicode="&#xef0d;" 
d="M768 512h-512q-9 0 -15 6.5t-6 15t6 15t15 6.5h512q4 0 8 -2t7 -4.5t4.5 -6.5t1.5 -9q0 -8 -6 -14.5t-15 -6.5zM896 683h-768q-9 0 -15 6t-6 15q0 4 1.5 8t4.5 7t7 4.5t8 1.5h768q4 0 8 -1.5t7 -4.5t4.5 -7t1.5 -8t-1.5 -8t-4.5 -7t-7 -4.5t-8 -1.5zM896 341h-768
q-6 0 -11 3t-7.5 8t-2.5 11q0 8 6 14.5t15 6.5h768q4 0 8 -1.5t7 -4.5t4.5 -7t1.5 -8q0 -9 -6 -15.5t-15 -6.5zM768 171h-512q-6 0 -11 2.5t-7.5 7.5t-2.5 11q0 9 6 15t15 6h512q3 0 6.5 -1t6 -3t4.5 -4.5t3 -6t1 -6.5q0 -9 -6 -15t-15 -6z" />
    <glyph glyph-name="align-justify-line" unicode="&#xef0e;" 
d="M896 512h-768q-9 0 -15 6.5t-6 15t6 15t15 6.5h768q4 0 8 -2t7 -4.5t4.5 -6.5t1.5 -9q0 -8 -6 -14.5t-15 -6.5zM896 683h-768q-9 0 -15 6t-6 15q0 4 1.5 8t4.5 7t7 4.5t8 1.5h768q4 0 8 -1.5t7 -4.5t4.5 -7t1.5 -8t-1.5 -8t-4.5 -7t-7 -4.5t-8 -1.5zM896 341h-768
q-6 0 -11 3t-7.5 8t-2.5 11q0 8 6 14.5t15 6.5h768q4 0 8 -1.5t7 -4.5t4.5 -7t1.5 -8q0 -9 -6 -15.5t-15 -6.5zM896 171h-768q-6 0 -11 2.5t-7.5 7.5t-2.5 11q0 9 6 15t15 6h768q6 0 11 -2.5t7.5 -7.5t2.5 -11q0 -9 -6 -15t-15 -6z" />
    <glyph glyph-name="align-left-line" unicode="&#xef0f;" 
d="M725 512h-597q-9 0 -15 6.5t-6 15t6 15t15 6.5h597q9 0 15.5 -6.5t6.5 -15t-6.5 -15t-15.5 -6.5zM896 683h-768q-9 0 -15 6t-6 15q0 4 1.5 8t4.5 7t7 4.5t8 1.5h768q4 0 8 -1.5t7 -4.5t4.5 -7t1.5 -8t-1.5 -8t-4.5 -7t-7 -4.5t-8 -1.5zM896 341h-768q-6 0 -11 3t-7.5 8
t-2.5 11q0 8 6 14.5t15 6.5h768q4 0 8 -1.5t7 -4.5t4.5 -7t1.5 -8q0 -9 -6 -15.5t-15 -6.5zM725 171h-597q-6 0 -11 2.5t-7.5 7.5t-2.5 11q0 9 6 15t15 6h597q6 0 11 -2.5t8 -7.5t3 -11q0 -9 -6.5 -15t-15.5 -6z" />
    <glyph glyph-name="align-right-line" unicode="&#xef10;" 
d="M896 512h-597q-9 0 -15.5 6.5t-6.5 15t6.5 15t15.5 6.5h597q4 0 8 -2t7 -4.5t4.5 -6.5t1.5 -9q0 -8 -6 -14.5t-15 -6.5zM896 683h-768q-9 0 -15 6t-6 15q0 4 1.5 8t4.5 7t7 4.5t8 1.5h768q4 0 8 -1.5t7 -4.5t4.5 -7t1.5 -8t-1.5 -8t-4.5 -7t-7 -4.5t-8 -1.5zM896 341
h-768q-6 0 -11 3t-7.5 8t-2.5 11q0 8 6 14.5t15 6.5h768q4 0 8 -1.5t7 -4.5t4.5 -7t1.5 -8q0 -9 -6 -15.5t-15 -6.5zM896 171h-597q-6 0 -11 2.5t-8 7.5t-3 11q0 9 6.5 15t15.5 6h597q6 0 11 -2.5t7.5 -7.5t2.5 -11q0 -9 -6 -15t-15 -6z" />
    <glyph glyph-name="anchor-line" unicode="&#xef11;" 
d="M512 597q-62 0 -105.5 44t-43.5 105.5t43.5 105.5t105.5 44t105.5 -44t43.5 -105q0 -41 -20 -75.5t-54.5 -54.5t-74.5 -20zM512 853q-44 0 -75.5 -31t-31.5 -75q0 -29 14.5 -53.5t39 -39t53.5 -14.5q44 0 75.5 31.5t31.5 75.5q0 17 -5.5 33.5t-15.5 29.5t-23 23t-29.5 15
t-33.5 5zM512 0q-9 0 -15 6.5t-6 14.5v598q0 3 1 6.5t3 6t4.5 4.5t6 3t6.5 1q4 0 8 -1.5t7 -4.5t4.5 -7t1.5 -8v-598q0 -8 -6 -14.5t-15 -6.5zM512 0q-185 0 -316.5 131.5t-131.5 316.5q0 6 3 11t8 7.5t10 2.5h128q9 0 15.5 -6t6.5 -15t-6.5 -15t-15.5 -6h-106
q6 -106 61 -194t146.5 -139t197.5 -51t197.5 51t146.5 139t61 194h-106q-9 0 -15.5 6t-6.5 15t6.5 15t15.5 6h128q8 0 14.5 -6t6.5 -15q0 -73 -22.5 -141.5t-64 -123.5t-96.5 -96.5t-123.5 -64t-141.5 -22.5z" />
    <glyph glyph-name="aperture-line" unicode="&#xef12;" 
d="M512 0q-185 0 -316.5 131.5t-131.5 316.5t131.5 316.5t316.5 131.5t316.5 -131.5t131.5 -316.5t-131.5 -316.5t-316.5 -131.5zM512 853q-110 0 -203.5 -54t-147.5 -147.5t-54 -203.5q0 -82 32 -157t86.5 -129.5t129.5 -86.5t157 -32q110 0 203.5 54t147.5 147.5t54 203.5
q0 66 -20.5 128t-58 111.5t-87 87t-111.5 58t-128 20.5zM855 173q-12 0 -18 11l-245 424q-4 8 -2 16.5t10 12.5q5 3 10.5 3t10.5 -3t8 -8l245 -424q4 -7 2 -15.5t-10 -13.5q-5 -3 -11 -3zM903 597h-490q-8 0 -14.5 6.5t-6.5 15.5q0 3 1 6.5t3 6t4.5 4.5t6 3t6.5 1h490
q9 0 15.5 -6.5t6.5 -14.5q0 -6 -3 -11t-8 -8t-11 -3zM315 427q-6 0 -11 3q-7 4 -9.5 12.5t1.5 16.5l245 424q3 5 8 7.5t10.5 2.5t10.5 -2q8 -5 10.5 -13.5t-2.5 -16.5l-245 -424q-1 -2 -3 -4t-4.5 -3.5t-5 -2t-5.5 -0.5zM413 256q-12 0 -18 11l-245 424q-4 7 -2 16t10 13
q5 3 10.5 3t10.5 -3t8 -8l245 -424q2 -4 2.5 -8t-0.5 -8t-3.5 -7.5t-6.5 -5.5q-2 -1 -3.5 -1.5t-3.5 -1t-4 -0.5zM611 256h-490q-9 0 -15.5 6.5t-6.5 15t6.5 15t15.5 6.5h490q5 0 10 -3t8 -8t3 -11q0 -8 -6.5 -14.5t-14.5 -6.5zM464 3q-3 0 -5.5 0.5t-4.5 1.5
q-8 5 -10.5 13.5t2.5 16.5l245 424q3 5 8 7.5t10 2.5t11 -3q7 -4 9.5 -12.5t-1.5 -16.5l-245 -424q-3 -5 -8 -7.5t-11 -2.5z" />
    <glyph glyph-name="archive-line" unicode="&#xef13;" 
d="M896 43h-768q-6 0 -11 2.5t-7.5 7.5t-2.5 11v555q0 8 6 14.5t15 6.5t15 -6.5t6 -14.5v-534h726v534q0 8 6 14.5t15 6.5t15 -6.5t6 -14.5v-555q0 -4 -1.5 -8t-4.5 -7t-7 -4.5t-8 -1.5zM981 597h-938q-9 0 -15.5 6.5t-6.5 15.5v213q0 9 6.5 15t15.5 6h938q9 0 15.5 -6
t6.5 -15v-213q0 -6 -3 -11t-8 -8t-11 -3zM64 640h896v171h-896v-171zM597 427h-170q-6 0 -11 2.5t-8 7.5t-3 11q0 9 6.5 15t15.5 6h170q9 0 15.5 -6t6.5 -15t-6.5 -15t-15.5 -6z" />
    <glyph glyph-name="arrow-down-circle-line" unicode="&#xef14;" 
d="M512 0q-185 0 -316.5 131.5t-131.5 316.5t131.5 316.5t316.5 131.5t316.5 -131.5t131.5 -316.5t-131.5 -316.5t-316.5 -131.5zM512 853q-110 0 -203.5 -54t-147.5 -147.5t-54 -203.5q0 -82 32 -157t86.5 -129.5t129.5 -86.5t157 -32q110 0 203.5 54t147.5 147.5t54 203.5
q0 66 -20.5 128t-58 111.5t-87 87t-111.5 58t-128 20.5zM512 256q-4 0 -8 1.5t-7 4.5l-171 171q-6 6 -6 15t6.5 15t15 6t14.5 -6l156 -155l156 155q6 6 15 6t15 -6t6 -15t-6 -15l-171 -171q-3 -3 -7 -4.5t-8 -1.5zM512 256q-9 0 -15 6.5t-6 14.5v342q0 3 1 6.5t3 6t4.5 4.5
t6 3t6.5 1q4 0 8 -1.5t7 -4.5t4.5 -7t1.5 -8v-342q0 -8 -6 -14.5t-15 -6.5z" />
    <glyph glyph-name="arrow-down-left-line" unicode="&#xef15;" 
d="M299 213q-9 0 -15.5 6.5t-6.5 15.5t7 15l426 426q2 2 4.5 3.5t5.5 2.5t5.5 1t5 -1t5 -2.5t4.5 -3.5q7 -6 7 -14.5t-7 -15.5l-426 -426q-6 -7 -15 -7zM725 213h-426q-6 0 -11 3t-8 8t-3 11v426q0 9 6.5 15.5t15 6.5t15 -6.5t6.5 -15.5v-405h405q5 0 9 -1.5t6.5 -4.5
t4.5 -7t2 -8q0 -9 -6.5 -15.5t-15.5 -6.5z" />
    <glyph glyph-name="arrow-down-line" unicode="&#xef16;" 
d="M512 128q-9 0 -15 6.5t-6 14.5v598q0 5 2.5 10t7.5 8t11 3q4 0 8 -1.5t7 -4.5t4.5 -7t1.5 -8v-598q0 -8 -6 -14.5t-15 -6.5zM512 128q-4 0 -8 1.5t-7 4.5l-299 299q-4 4 -5.5 9.5t0 11t5.5 9.5q7 6 15.5 6t14.5 -6l284 -283l284 283q6 6 15 6t15 -6t6 -15t-6 -15
l-299 -299q-6 -6 -15 -6z" />
    <glyph glyph-name="arrow-down-right-line" unicode="&#xef17;" 
d="M725 213q-9 0 -15 7l-426 426q-7 7 -7 15.5t6.5 15t15.5 6.5t15 -7l426 -426q5 -4 6 -9.5t0 -11t-6 -9.5q-6 -6 -15 -7zM725 213h-426q-6 0 -11 3t-8 8t-3 11q0 8 6.5 14.5t15.5 6.5h405v405q0 9 6 15.5t15 6.5t15.5 -6.5t6.5 -15.5v-426q0 -9 -6.5 -15.5t-15.5 -6.5z
" />
    <glyph glyph-name="arrow-left-circle-line" unicode="&#xef18;" 
d="M512 0q-185 0 -316.5 131.5t-131.5 316.5t131.5 316.5t316.5 131.5t316.5 -131.5t131.5 -316.5t-131.5 -316.5t-316.5 -131.5zM512 853q-110 0 -203.5 -54t-147.5 -147.5t-54 -203.5q0 -82 32 -157t86.5 -129.5t129.5 -86.5t157 -32q110 0 203.5 54t147.5 147.5t54 203.5
q0 66 -20.5 128t-58 111.5t-87 87t-111.5 58t-128 20.5zM512 256q-4 0 -8 1.5t-7 4.5l-171 171q-6 6 -6 15t6 15l171 171q6 6 15 6t15 -6q2 -2 3.5 -4.5t2 -5.5t0.5 -5.5t-0.5 -5t-2 -5t-3.5 -4.5l-155 -156l155 -156q2 -1 3 -3.5t2 -4.5t1.5 -4.5t0 -4.5t-1.5 -4.5t-2 -4.5
t-3 -4t-4.5 -3.5t-5 -2t-5.5 -0.5zM683 427h-342q-5 0 -10 2.5t-8 7.5t-3 11q0 9 6.5 15t14.5 6h342q3 0 6.5 -1t6 -3t4.5 -4.5t3 -6t1 -6.5q0 -21 -21 -21z" />
    <glyph glyph-name="arrow-left-line" unicode="&#xef19;" 
d="M811 427h-598q-5 0 -10 2.5t-8 7.5t-3 11q0 9 6.5 15t14.5 6h598q8 0 14.5 -6t6.5 -15t-6.5 -15t-14.5 -6zM512 128q-4 0 -8 1.5t-7 4.5l-299 299q-4 4 -5.5 9.5t0 11t5.5 9.5l299 299q6 6 15 6t15 -6t6 -15t-6 -15l-283 -284l283 -284q2 -2 3.5 -4.5t2 -5t0.5 -5
t-0.5 -5.5t-2 -5.5t-3.5 -4.5t-4.5 -3.5t-5 -2t-5.5 -0.5z" />
    <glyph glyph-name="arrow-right-circle-line" unicode="&#xef1a;" 
d="M512 0q-185 0 -316.5 131.5t-131.5 316.5t131.5 316.5t316.5 131.5t316.5 -131.5t131.5 -316.5t-131.5 -316.5t-316.5 -131.5zM512 853q-110 0 -203.5 -54t-147.5 -147.5t-54 -203.5q0 -82 32 -157t86.5 -129.5t129.5 -86.5t157 -32q110 0 203.5 54t147.5 147.5t54 203.5
q0 66 -20.5 128t-58 111.5t-87 87t-111.5 58t-128 20.5zM512 256q-4 0 -8 1.5t-7 4.5q-6 7 -6 15.5t6 14.5l156 156l-156 156q-6 6 -6 15t6 15t15 6t15 -6l171 -171q6 -6 6 -15t-6 -15l-171 -171q-1 -1 -3 -2.5t-4 -2l-4 -1t-4 -0.5zM683 427h-342q-5 0 -10 2.5t-8 7.5
t-3 11q0 9 6.5 15t14.5 6h342q3 0 6.5 -1t6 -3t4.5 -4.5t3 -6t1 -6.5q0 -21 -21 -21z" />
    <glyph glyph-name="arrow-right-line" unicode="&#xef1b;" 
d="M811 427h-598q-5 0 -10 2.5t-8 7.5t-3 11q0 9 6.5 15t14.5 6h598q8 0 14.5 -6t6.5 -15t-6.5 -15t-14.5 -6zM512 128q-4 0 -8 1.5t-7 4.5q-4 4 -5.5 9.5t0 11t5.5 9.5l284 284l-284 284q-6 6 -6 15t6 15t15 6t15 -6l299 -299q6 -6 6 -15t-6 -15l-299 -299q-6 -6 -15 -6z
" />
    <glyph glyph-name="arrow-up-circle-line" unicode="&#xef1c;" 
d="M512 0q-185 0 -316.5 131.5t-131.5 316.5t131.5 316.5t316.5 131.5t316.5 -131.5t131.5 -316.5t-131.5 -316.5t-316.5 -131.5zM512 853q-110 0 -203.5 -54t-147.5 -147.5t-54 -203.5q0 -82 32 -157t86.5 -129.5t129.5 -86.5t157 -32q110 0 203.5 54t147.5 147.5t54 203.5
q0 66 -20.5 128t-58 111.5t-87 87t-111.5 58t-128 20.5zM683 427q-9 0 -15 6l-156 155l-156 -155q-6 -6 -15 -6t-15 6t-6 15t6 15l171 171q6 6 15 6t15 -6l171 -171q6 -6 6 -15t-6 -15t-15 -6zM512 256q-9 0 -15 6.5t-6 14.5v342q0 3 1 6.5t3 6t4.5 4.5t6 3t6.5 1
q4 0 8 -1.5t7 -4.5t4.5 -7t1.5 -8v-342q0 -8 -6 -14.5t-15 -6.5z" />
    <glyph glyph-name="arrow-up-left-line" unicode="&#xef1d;" 
d="M725 213q-9 0 -15 7l-426 426q-7 7 -7 15.5t6.5 15t15.5 6.5t15 -7l426 -426q5 -4 6 -9.5t0 -11t-6 -9.5q-6 -6 -15 -7zM298.5 213q-5.5 0 -10.5 3t-8 8t-3 11v426q0 9 6.5 15.5t15.5 6.5h426q6 0 11 -3t8 -8t3 -11q0 -8 -6.5 -14.5t-15.5 -6.5h-405v-405q0 -6 -3 -11
t-8 -8t-10.5 -3z" />
    <glyph glyph-name="arrow-up-line" unicode="&#xef1e;" 
d="M512 128q-9 0 -15 6.5t-6 14.5v598q0 5 2.5 10t7.5 8t11 3q4 0 8 -1.5t7 -4.5t4.5 -7t1.5 -8v-598q0 -8 -6 -14.5t-15 -6.5zM811 427q-9 0 -15 6l-284 283l-284 -283q-6 -6 -15 -6t-15 6t-6 15t6 15l299 299q6 6 15 6t15 -6l299 -299q6 -6 6 -15t-6 -15q-2 -2 -4.5 -3.5
t-5.5 -2t-5 -0.5z" />
    <glyph glyph-name="arrow-up-right-line" unicode="&#xef1f;" 
d="M299 213q-9 0 -15.5 6.5t-6.5 15.5t7 15l426 426q2 2 4.5 3.5t5.5 2.5t5.5 1t5 -1t5 -2.5t4.5 -3.5q7 -6 7 -14.5t-7 -15.5l-426 -426q-6 -7 -15 -7zM725 213q-5 0 -10 3t-8 8t-3 11v405h-405q-9 0 -15.5 6t-6.5 15t6.5 15.5t15.5 6.5h426q6 0 11 -3t8 -8t3 -11v-426
q0 -9 -6.5 -15.5t-15.5 -6.5z" />
    <glyph glyph-name="at-sign-line" unicode="&#xef20;" 
d="M512 256q-79 0 -135.5 56.5t-56.5 135.5t56.5 135.5t135.5 56.5t135.5 -56.5t56.5 -135.5t-56.5 -135.5t-135.5 -56.5zM512 597q-62 0 -105.5 -43.5t-43.5 -105.5t43.5 -105.5t105.5 -43.5t105.5 43.5t43.5 105.5q0 40 -20 74.5t-54.5 54.5t-74.5 20zM512 0
q-60 0 -116.5 15t-107.5 44.5t-93 71.5t-71.5 93t-44.5 107.5t-15 116.5q0 91 35.5 174t95.5 143t143 95.5t174 35.5q73 0 141.5 -22.5t123.5 -64t96.5 -96.5t64 -123.5t22.5 -141.5v-43q0 -20 -5.5 -39.5t-15 -35.5t-23.5 -30t-30 -23.5t-35.5 -15t-39.5 -5.5
q-62 0 -106 44t-44 105v214q0 4 2 8t4.5 7t6.5 4.5t9 1.5q8 0 14.5 -6.5t6.5 -14.5v-214q0 -21 8.5 -41t23 -34t34 -22.5t41.5 -8.5q44 0 75 31t31 75v43q0 41 -8 81.5t-23.5 76.5t-37.5 68.5t-49.5 60t-60 49.5t-68.5 37.5t-76.5 23.5t-81.5 8q-110 0 -203.5 -54
t-147.5 -147.5t-54 -203.5q0 -81 30.5 -155t88 -131.5t131.5 -88t155 -30.5q137 0 246 83q5 4 10.5 4.5t11 -1.5t8.5 -7q6 -7 4.5 -15.5t-8.5 -14.5q-120 -92 -272 -92z" />
    <glyph glyph-name="award-line" unicode="&#xef21;" 
d="M512 299q-87 0 -160.5 42.5t-116.5 116.5t-43 160.5t43 160.5t116.5 117t160.5 43t160.5 -43t116.5 -117t43 -160.5t-43 -160.5t-116.5 -116.5t-160.5 -42.5zM512 896q-115 0 -196 -81.5t-81 -195.5q0 -33 7 -64t21 -58.5t33 -51.5t43 -43t51 -32.5t58.5 -21t63.5 -7.5
q115 0 196 81.5t81 196t-81 196t-196 81.5zM299 -43q-7 0 -12 4q-11 7 -9 20l51 389q1 6 4.5 10.5t8.5 6.5t11 1.5t10.5 -4t6.5 -9t1 -10.5l-45 -345l175 105q11 7 22 0l175 -105l-45 345q-1 4 0 8.5t3.5 7.5t6.5 5t8 3q9 1 16 -4.5t8 -13.5l51 -390q2 -13 -9 -20.5
t-23 -0.5l-202 122l-202 -122q-5 -3 -11 -3z" />
    <glyph glyph-name="bar-chart-2-line" unicode="&#xef22;" 
d="M768 85q-4 0 -8 2t-7 4.5t-4.5 6.5t-1.5 9v426q0 9 6 15.5t15 6.5q4 0 8 -2t7 -4.5t4.5 -6.5t1.5 -9v-426q0 -9 -6 -15.5t-15 -6.5zM512 85q-6 0 -11 3t-7.5 8t-2.5 11v682q0 6 2.5 11t7.5 8t11 3q4 0 8 -2t7 -4.5t4.5 -6.5t1.5 -9v-682q0 -9 -6 -15.5t-15 -6.5zM256 85
q-9 0 -15 6.5t-6 15.5v256q0 8 6 14.5t15 6.5t15 -6.5t6 -14.5v-256q0 -9 -6 -15.5t-15 -6.5z" />
    <glyph glyph-name="bar-chart-line" unicode="&#xef23;" 
d="M512 85q-6 0 -11 3t-7.5 8t-2.5 11v426q0 9 6 15.5t15 6.5q4 0 8 -2t7 -4.5t4.5 -6.5t1.5 -9v-426q0 -9 -6 -15.5t-15 -6.5zM768 85q-4 0 -8 2t-7 4.5t-4.5 6.5t-1.5 9v682q0 5 1.5 9t4.5 6.5t7 4.5t8 2t8 -2t7 -4.5t4.5 -6.5t1.5 -9v-682q0 -9 -6 -15.5t-15 -6.5z
M256 85q-9 0 -15 6.5t-6 15.5v170q0 9 6 15.5t15 6.5t15 -6.5t6 -15.5v-170q0 -9 -6 -15.5t-15 -6.5z" />
    <glyph glyph-name="battery-charging-line" unicode="&#xef24;" 
d="M725 171h-136q-6 0 -10.5 2.5t-7.5 7.5t-3 11q0 9 6 15t15 6h136q6 0 11.5 1t11 3t10 5t9 6.5t8 7.5t6 9t4.5 10t3 11t1 11v342q0 17 -8.5 32t-23 23.5t-32.5 8.5h-85q-4 0 -8 1.5t-7 4.5t-4.5 7t-1.5 8q0 9 6 15t15 6h85q29 0 53.5 -14t39 -38.5t14.5 -53.5v-342
q0 -44 -31.5 -75t-75.5 -31zM213 171h-85q-44 0 -75.5 31t-31.5 75v342q0 44 31.5 75t75.5 31h136q9 0 15 -6t6 -15t-6 -15t-15 -6h-136q-26 0 -45 -19t-19 -45v-342q0 -26 19 -45t45 -19h85q9 0 15.5 -6t6.5 -15q0 -6 -3 -11t-8 -7.5t-11 -2.5zM981 384q-8 0 -14.5 6.5
t-6.5 14.5v86q0 8 6.5 14.5t15 6.5t15 -6.5t6.5 -14.5v-86q0 -5 -3 -10t-8 -8t-11 -3zM384 171h-4t-4 1l-4 2q-7 5 -9 13.5t3 16.5l149 223h-216q-13 0 -19 11q-3 5 -2.5 11t3.5 11l171 256q4 7 13 9t16.5 -3t9 -13.5t-3.5 -16.5l-148 -223h216q12 0 18 -11q3 -5 3 -11
t-4 -11l-170 -256q-7 -9 -18 -9z" />
    <glyph glyph-name="battery-line" unicode="&#xef25;" 
d="M725 171h-597q-44 0 -75.5 31t-31.5 75v342q0 44 31.5 75t75.5 31h597q29 0 53.5 -14t39 -38.5t14.5 -53.5v-342q0 -44 -31.5 -75t-75.5 -31zM128 683q-26 0 -45 -19t-19 -45v-342q0 -26 19 -45t45 -19h597q18 0 32.5 8.5t23 23.5t8.5 32v342q0 17 -8.5 32t-23 23.5
t-32.5 8.5h-597zM981 384q-8 0 -14.5 6.5t-6.5 14.5v86q0 8 6.5 14.5t15 6.5t15 -6.5t6.5 -14.5v-86q0 -5 -3 -10t-8 -8t-11 -3z" />
    <glyph glyph-name="bell-line" unicode="&#xef26;" 
d="M896 213h-768q-16 0 -20.5 15.5t8.5 23.5q2 1 5 3.5t10.5 11t16 18.5t18.5 27.5t19.5 37.5t18.5 48.5t15.5 60.5t11 73.5t4.5 86.5q0 114 81 195.5t196 81.5t196 -81.5t81 -195.5q0 -79 13 -146t28.5 -105t35.5 -67t29 -37.5t13 -11.5q13 -9 8.5 -24t-20.5 -15zM179 256
h666q-98 124 -98 363q0 63 -31.5 117t-85.5 85.5t-118 31.5q-97 0 -166 -68.5t-69 -165.5q0 -239 -98 -363zM512 0q-29 0 -54 15q-24 14 -38 38q-5 8 -2.5 16.5t10 13t16 2t13.5 -9.5q8 -15 23 -24q23 -13 48.5 -6t38.5 30q5 7 13.5 9.5t16 -2t10 -13t-2.5 -16.5
q-22 -38 -65 -49q-6 -2 -13 -3t-14 -1z" />
    <glyph glyph-name="bell-off-line" unicode="&#xef27;" 
d="M512 0q-29 0 -54 15q-24 14 -38 38q-5 8 -2.5 16.5t10 13t16 2t13.5 -9.5q8 -15 23 -24q23 -13 48.5 -6t38.5 30q5 7 13.5 9.5t16 -2t10 -13t-2.5 -16.5q-22 -38 -65 -49q-6 -2 -13 -3t-14 -1zM795 384q-16 0 -21 16q-29 107 -27 219q0 6 3 10.5t8 7.5t10 3q9 0 15 -6.5
t6 -15.5q-1 -52 6 -104t20 -103q2 -4 1 -8.5t-3 -8t-5 -6t-7 -3.5q-3 -1 -6 -1zM725 213h-597q-16 0 -20.5 15.5t8.5 23.5q2 1 5 3.5t10.5 11t16 18.5t18.5 27.5t19.5 37.5t18.5 48.5t15.5 60.5t11 73.5t4.5 86.5q0 41 12 80q2 9 10 13t16.5 1.5t12.5 -10.5t1 -16
q-5 -17 -7.5 -34t-2.5 -34q0 -239 -98 -363h546q9 0 15.5 -6t6.5 -15t-6.5 -15.5t-15.5 -6.5zM768 597q-9 0 -15 6.5t-6 15.5q0 47 -18 89.5t-51 76.5q-22 22 -48.5 37.5t-56 23.5t-61.5 8q-23 0 -45.5 -4.5t-44 -13.5t-40.5 -22q-8 -5 -16.5 -3t-13.5 9q-2 4 -3 8t0 8
t3 7.5t6 6.5q34 23 73.5 34.5t80.5 11.5q115 0 196.5 -81.5t80.5 -195.5q0 -9 -6 -15.5t-15 -6.5zM981 -43q-1 0 -3 0.5t-3.5 1l-3 1t-3 1.5t-2.5 3l-938 938q-7 7 -7 15.5t6.5 15t15.5 6.5t15 -7l938 -938q7 -6 7 -15t-7 -15q-6 -6 -15 -7z" />
    <glyph glyph-name="bluetooth-line" unicode="&#xef28;" 
d="M512 -43q-5 1 -8 2q-6 2 -9.5 7.5t-3.5 12.5v417l-199 -198q-6 -6 -15 -6t-15 6t-6 15t6 15l220 220l-220 220q-6 6 -6 15t6 15t15 6t15 -6l199 -198v417q0 7 3.5 12.5t9.5 7.5q13 6 23 -5l235 -234q2 -2 3.5 -4.5t2 -5.5t0.5 -5.5t-0.5 -5t-2 -5t-3.5 -4.5l-220 -220
l220 -220q2 -2 3.5 -4.5t2 -5t0.5 -5t-0.5 -5.5t-2 -5.5t-3.5 -4.5l-235 -234q-1 -2 -2.5 -3t-3 -1.5l-3 -1l-3 -1t-3.5 -0.5zM533 396v-366l183 183zM533 866v-367l183 184z" />
    <glyph glyph-name="bold-line" unicode="&#xef29;" 
d="M597 427h-341q-9 0 -15 6t-6 15v341q0 6 2.5 11t7.5 8t11 3h341q52 0 96.5 -26t70 -70t25.5 -96t-25.5 -96.5t-70 -70t-96.5 -25.5zM277 469h320q25 0 47.5 7.5t41 21.5t32.5 32.5t21.5 41t7.5 47.5q0 30 -12 57.5t-32 47.5t-47.5 32t-58.5 12h-320v-299zM640 85h-384
q-9 0 -15 6.5t-6 15.5v341q0 9 6 15t15 6h384q79 0 135.5 -56t56.5 -135.5t-56.5 -136t-135.5 -56.5zM277 128h363q62 0 105.5 44t43.5 105q0 41 -20 75.5t-54.5 54.5t-74.5 20h-363v-299z" />
    <glyph glyph-name="book-line" unicode="&#xef2a;" 
d="M171 107q-9 0 -15.5 6t-6.5 15q0 53 37.5 90.5t90.5 37.5h576q5 0 9 -1.5t6.5 -4.5t4.5 -7t2 -8q0 -9 -6.5 -15.5t-15.5 -6.5h-576q-35 0 -60 -25t-25 -60q0 -6 -3 -11t-8 -7.5t-10 -2.5zM853 0h-576q-53 0 -90.5 37.5t-37.5 90.5v640q0 53 37.5 90.5t90.5 37.5h576
q9 0 15.5 -6.5t6.5 -14.5v-854q0 -8 -6.5 -14.5t-15.5 -6.5zM277 853q-35 0 -60 -25t-25 -60v-640q0 -35 25 -60t60 -25h555v810h-555z" />
    <glyph glyph-name="book-open-line" unicode="&#xef2b;" 
d="M512 43q-9 0 -15 6t-6 15q0 44 -31.5 75.5t-75.5 31.5h-299q-5 0 -10 2.5t-8 7.5t-3 11v640q0 4 1.5 8t4.5 7t7 4.5t8 1.5h256q52 0 96.5 -25.5t70 -70t25.5 -96.5v-597q0 -4 -1.5 -8t-4.5 -7t-7 -4.5t-8 -1.5zM107 213h277q63 0 107 -45v493q0 62 -44 106t-106 44h-234
v-598zM512 43q-9 0 -15 6t-6 15v597q0 52 25.5 96.5t70 70t96.5 25.5h256q8 0 14.5 -6t6.5 -15v-640q0 -9 -6.5 -15t-14.5 -6h-299q-44 0 -75.5 -31.5t-31.5 -75.5q0 -4 -1.5 -8t-4.5 -7t-7 -4.5t-8 -1.5zM683 811q-62 0 -106 -44t-44 -106v-493q44 45 107 45h277v598h-234z
" />
    <glyph glyph-name="bookmark-line" unicode="&#xef2c;" 
d="M811 43q-7 0 -13 4l-286 204l-286 -204q-11 -8 -22.5 -2t-11.5 19v683q0 44 31.5 75t75.5 31h426q29 0 53.5 -14t39 -38.5t14.5 -53.5v-683q0 -6 -3 -11t-9 -8q-2 -1 -4.5 -1.5t-4.5 -0.5zM512 299q7 -1 12 -4l265 -190v642q0 26 -18.5 45t-45.5 19h-426q-27 0 -45.5 -19
t-18.5 -45v-642l265 190q5 4 12 4z" />
    <glyph glyph-name="box-line" unicode="&#xef2d;" 
d="M512 0q-7 0 -14 1t-13.5 2.5t-13 4.5t-12.5 6l-299 171q-16 9 -28 23.5t-18.5 32t-6.5 36.5v342q0 28 14 53t39 39l299 171q12 7 25.5 10.5t27.5 3.5t27.5 -3.5t25.5 -10.5l299 -171q16 -9 28 -23.5t18.5 -32.5t6.5 -36v-342q0 -28 -14 -53t-39 -39l-299 -171
q-24 -14 -53 -14zM512 853q-17 0 -32 -8l-299 -171q-32 -18 -32 -55v-342q0 -37 32 -55l299 -171q32 -18 64 0l299 171q32 18 32 55v342q0 11 -4 21.5t-11.5 19t-16.5 14.5l-299 171q-7 4 -15.5 6t-16.5 2zM512 426q-3 0 -5.5 1t-5.5 2l-372 216q-8 4 -10 12.5t2 16t13 10
t16 -1.5l362 -210l362 210q5 2 10.5 2t10.5 -2.5t8 -7.5q3 -6 3 -11t-3 -10.5t-8 -7.5l-372 -216zM512 -3q-9 0 -15 6t-6 15v430q0 9 6 15t15 6q3 0 6.5 -1t6 -3t4.5 -4.5t3 -6t1 -6.5v-430q0 -9 -6 -15t-15 -6z" />
    <glyph glyph-name="briefcase-line" unicode="&#xef2e;" 
d="M853 43h-682q-44 0 -75.5 31t-31.5 75v427q0 44 31.5 75.5t75.5 31.5h682q44 0 75.5 -31.5t31.5 -75.5v-427q0 -44 -31.5 -75t-75.5 -31zM171 640q-27 0 -45.5 -19t-18.5 -45v-427q0 -26 18.5 -45t45.5 -19h682q27 0 45.5 19t18.5 45v427q0 26 -18.5 45t-45.5 19h-682z
M683 43q-9 0 -15.5 6t-6.5 15v683q0 17 -8.5 32t-23 23.5t-32.5 8.5h-170q-27 0 -45.5 -19t-18.5 -45v-683q0 -4 -2 -8t-4.5 -7t-6.5 -4.5t-9 -1.5q-8 0 -14.5 6t-6.5 15v683q0 44 31.5 75t75.5 31h170q29 0 53.5 -14t39 -38.5t14.5 -53.5v-683q0 -4 -1.5 -8t-4.5 -7
t-7 -4.5t-8 -1.5z" />
    <glyph glyph-name="calendar-line" unicode="&#xef2f;" 
d="M811 0h-598q-44 0 -75 31.5t-31 75.5v597q0 44 31 75.5t75 31.5h598q21 0 41 -8.5t34 -23t22.5 -34t8.5 -41.5v-597q0 -44 -31 -75.5t-75 -31.5zM213 768q-17 0 -32 -8.5t-23.5 -23.5t-8.5 -32v-597q0 -27 19 -45.5t45 -18.5h598q26 0 45 18.5t19 45.5v597q0 26 -19 45
t-45 19h-598zM683 683q-9 0 -15.5 6t-6.5 15v171q0 8 6.5 14.5t15 6.5t15 -6.5t6.5 -14.5v-171q0 -4 -1.5 -8t-4.5 -7t-7 -4.5t-8 -1.5zM341 683q-8 0 -14.5 6t-6.5 15v171q0 8 6.5 14.5t15 6.5t15 -6.5t6.5 -14.5v-171q-5 -18 -22 -21zM896 512h-768q-9 0 -15 6.5t-6 15
t6 15t15 6.5h768q4 0 8 -2t7 -4.5t4.5 -6.5t1.5 -9q0 -8 -6 -14.5t-15 -6.5z" />
    <glyph glyph-name="camera-line" unicode="&#xef30;" 
d="M896 43h-768q-44 0 -75.5 31t-31.5 75v470q0 44 31.5 75t75.5 31h159l79 119q7 9 18 9h256q11 0 18 -9l79 -119h159q29 0 53.5 -14t39 -38.5t14.5 -53.5v-470q0 -44 -31.5 -75t-75.5 -31zM128 683q-26 0 -45 -19t-19 -45v-470q0 -26 19 -45t45 -19h768q26 0 45 19t19 45
v470q0 17 -8.5 32t-23.5 23.5t-32 8.5h-171q-11 0 -17 9l-79 119h-234l-79 -119q-6 -9 -17 -9h-171zM512 213q-79 0 -135.5 56.5t-56.5 136t56.5 135.5t135.5 56t135.5 -56t56.5 -135.5t-56.5 -136t-135.5 -56.5zM512 555q-62 0 -105.5 -44t-43.5 -105.5t43.5 -105.5
t105.5 -44t105.5 44t43.5 105q0 41 -20 75.5t-54.5 54.5t-74.5 20z" />
    <glyph glyph-name="camera-off-line" unicode="&#xef31;" 
d="M981 -43q-1 0 -3 0.5t-3.5 1l-3 1t-3 1.5t-2.5 3l-938 938q-7 7 -7 15.5t6.5 15t15.5 6.5t15 -7l938 -938q7 -6 7 -15t-7 -15q-6 -6 -15 -7zM896 43h-768q-44 0 -75.5 31t-31.5 75v470q0 44 31.5 75t75.5 31h128q9 0 15 -6t6 -15t-6 -15t-15 -6h-128q-26 0 -45 -19
t-19 -45v-470q0 -26 19 -45t45 -19h768q4 0 8 -1.5t7 -4.5t4.5 -7t1.5 -8t-1.5 -8t-4.5 -7t-7 -4.5t-8 -1.5zM981.5 199q-8.5 0 -15 6t-6.5 15v399q0 17 -8.5 32t-23.5 23.5t-32 8.5h-171q-11 0 -17 9l-79 119h-245q-9 0 -15 6t-6 15q0 4 1.5 8t4.5 7t7 4.5t8 1.5h256
q11 0 18 -9l79 -119h159q44 0 75.5 -31t31.5 -75v-399q0 -9 -6.5 -15t-15 -6zM511 213q-29 0 -56.5 8t-51.5 25q-32 22 -53 53.5t-28 69.5q-14 78 31 144q10 15 22.5 27.5t27.5 22.5q7 5 15.5 3.5t13.5 -9t3.5 -16t-8.5 -13.5q-12 -8 -21.5 -18t-17.5 -21
q-35 -51 -23.5 -112t62.5 -96q16 -11 35 -17.5t38 -8t38.5 2t36.5 12t32.5 21t26.5 29.5q5 7 14 9t16 -3t8.5 -14t-3.5 -16q-11 -16 -24.5 -29.5t-29 -23.5t-33 -17t-35.5 -10t-36 -3z" />
    <glyph glyph-name="cast-line" unicode="&#xef32;" 
d="M252 85q-18 0 -21 17q-8 38 -29 69t-52 52.5t-69 28.5q-9 2 -13.5 9.5t-3 16t9 13.5t16.5 3q45 -9 83.5 -35t64 -64t35.5 -84q1 -9 -3.5 -16t-13.5 -9q-2 -1 -4 -1zM425 85q-9 0 -15 5.5t-7 13.5q-14 128 -103.5 217.5t-216.5 103.5q-6 0 -10.5 3.5t-7 8.5t-1.5 11
q1 9 8 14.5t16 4.5q56 -6 107.5 -27t94 -54t75.5 -75t53.5 -94t27.5 -108q1 -9 -4.5 -16t-14.5 -8h-2zM853 85h-256q-8 0 -14.5 6.5t-6.5 15t6.5 15t14.5 6.5h256q8 0 15 1.5t13.5 5t12 7.5t10 10t7.5 12t4.5 13.5t1.5 14.5v512q0 17 -8.5 32t-23 23.5t-32.5 8.5h-682
q-27 0 -45.5 -19t-18.5 -45v-85q0 -9 -6.5 -15.5t-15 -6.5t-15 6.5t-6.5 15.5v85q0 29 14.5 53.5t39 39t53.5 14.5h682q22 0 41.5 -8.5t34 -23t23 -34t8.5 -41.5v-512q0 -44 -31.5 -75.5t-75.5 -31.5zM86 85q-6 0 -11 3t-8 8t-3 11q0 9 6.5 15t15.5 6q6 0 10.5 -3t7.5 -8
t3 -10.5t-3 -10.5t-7.5 -8t-10.5 -3z" />
    <glyph glyph-name="check-circle-line" unicode="&#xef33;" 
d="M512 0q-91 0 -174 35.5t-143 96t-95.5 143.5t-35.5 174q0 72 22.5 140.5t64 123.5t97 96.5t123.5 64t141 22.5q95 0 182 -39q8 -3 11.5 -11.5t0 -16.5t-12 -11t-16.5 0q-79 36 -165 36q-110 0 -203.5 -54.5t-147.5 -148t-54 -203t54 -203t147.5 -148t203.5 -54.5
t203.5 54t147.5 147.5t54 203.5v39q0 9 6.5 15.5t15 6.5t15 -6.5t6.5 -15.5v-39q0 -91 -35.5 -174t-95.5 -143t-143 -95.5t-174 -35.5zM512 341q-9 0 -15 6l-128 128q-6 6 -6 15t6 15.5t15 6.5t15 -7l113 -113l412 412q6 7 15 7t15 -6.5t6 -15.5t-6 -15l-427 -427
q-6 -6 -15 -6z" />
    <glyph glyph-name="check-line" unicode="&#xef34;" 
d="M384 213q-9 0 -15 7l-213 213q-7 6 -7 15t6.5 15t15.5 6t15 -6l198 -198l454 454q7 6 15.5 6t15 -6t6.5 -15t-7 -15l-469 -469q-2 -2 -4.5 -3.5t-5 -2.5t-5.5 -1z" />
    <glyph glyph-name="check-square-line" unicode="&#xef35;" 
d="M512 341q-9 0 -15 7l-128 128q-6 6 -6 15t6 15t15 6t15 -6l113 -113l412 411q2 2 4.5 3.5t5 2.5t5 1t5.5 -1t5.5 -2.5t4.5 -3.5q6 -6 6 -15t-6 -15l-427 -426q-6 -7 -15 -7zM811 43h-598q-44 0 -75 31t-31 75v598q0 44 31 75t75 31h470q4 0 8 -1.5t7 -4.5t4.5 -7t1.5 -8
t-1.5 -8t-4.5 -7t-7 -4.5t-8 -1.5h-470q-26 0 -45 -19t-19 -45v-598q0 -17 8.5 -32t23.5 -23.5t32 -8.5h598q26 0 45 19t19 45v299q0 9 6 15t15 6t15 -6t6 -15v-299q0 -44 -31 -75t-75 -31z" />
    <glyph glyph-name="chevron-down-line" unicode="&#xef36;" 
d="M512 299q-9 0 -15 6l-256 256q-6 6 -6 15t6 15t15 6t15 -6l241 -241l241 241q2 2 4.5 3.5t5 2t5.5 0.5t5.5 -0.5t5 -2t4.5 -3.5q6 -6 6 -15t-6 -15l-256 -256q-3 -3 -7 -4.5t-8 -1.5z" />
    <glyph glyph-name="chevron-left-line" unicode="&#xef37;" 
d="M640 171q-9 0 -15 6l-256 256q-4 4 -5.5 9.5t0 11t5.5 9.5l256 256q6 6 15 6t15 -6t6 -15t-6 -15l-241 -241l241 -241q2 -2 3.5 -4.5t2 -5t0.5 -5.5t-0.5 -5.5t-2 -5t-3.5 -4.5q-6 -6 -15 -6z" />
    <glyph glyph-name="chevron-right-line" unicode="&#xef38;" 
d="M384 171q-9 0 -15 6t-6 15t6 15l241 241l-241 241q-6 6 -6 15t6 15t15 6t15 -6l256 -256q6 -6 6 -15t-6 -15l-256 -256q-6 -6 -15 -6z" />
    <glyph glyph-name="chevron-up-line" unicode="&#xef39;" 
d="M768 299q-9 0 -15 6l-241 241l-241 -241q-6 -6 -15 -6t-15 6t-6 15t6 15l256 256q6 6 15 6t15 -6l256 -256q6 -6 6 -15t-6 -15t-15 -6z" />
    <glyph glyph-name="chevrons-down-line" unicode="&#xef3a;" 
d="M512 171q-9 0 -15 6l-213 213q-7 7 -7 15.5t6.5 15t15.5 6.5t15 -7l198 -198l198 198q7 7 15.5 7t15 -6.5t6.5 -15t-7 -15.5l-213 -213q-3 -3 -7 -4.5t-8 -1.5zM512 469q-9 0 -15 7l-213 213q-7 6 -7 15t6.5 15t15.5 6t15 -6l198 -198l198 198q2 2 4.5 3.5t5.5 2t5.5 0.5
t5 -0.5t5 -2t4.5 -3.5q7 -6 7 -15t-7 -15l-213 -213q-3 -3 -7 -5t-8 -2z" />
    <glyph glyph-name="chevrons-left-line" unicode="&#xef3b;" 
d="M469 213q-9 0 -15 7l-213 213q-6 6 -6 15t6 15l213 213q2 2 4.5 3.5t5.5 2.5t5.5 1t5 -1t5 -2.5t4.5 -3.5q5 -4 6 -9.5t0 -11t-6 -9.5l-198 -198l198 -198q7 -7 7 -15.5t-7 -14.5q-3 -3 -6.5 -5t-8.5 -2zM768 213q-9 0 -15 7l-213 213q-2 2 -3.5 4t-2 4t-1 4.5t0 5t1 4.5
t2 4t3.5 4l213 213q2 2 4.5 3.5t5 2.5t5.5 1t5.5 -1t5 -2.5t4.5 -3.5q6 -6 6 -14.5t-6 -15.5l-198 -198l198 -198q2 -2 3.5 -4.5t2 -5.5t0.5 -5.5t-0.5 -5t-2 -5t-3.5 -4.5q-6 -7 -15 -7z" />
    <glyph glyph-name="chevrons-right-line" unicode="&#xef3c;" 
d="M555 213q-9 0 -15 7q-2 2 -3.5 4.5t-2.5 5t-1 5t1 5.5t2.5 5.5t3.5 4.5l198 198l-198 198q-2 2 -3.5 4.5t-2.5 5.5t-1 5.5t1 5t2.5 5t3.5 4.5q6 7 15 7t15 -7l213 -213q2 -2 3 -4l2 -4t1.5 -4.5t0 -5t-1.5 -4.5l-2 -4t-3 -4l-213 -213q-6 -7 -15 -7zM256 213q-3 0 -5.5 1
t-5 2.5t-4.5 3.5q-3 3 -4.5 7t-1.5 8t1.5 8t4.5 7l198 198l-198 198q-6 7 -6 15.5t6 15t15 6.5t15 -7l213 -213q7 -6 7 -15t-7 -15l-213 -213q-1 -2 -2.5 -3t-3 -1.5l-3 -1l-3 -1t-3.5 -0.5z" />
    <glyph glyph-name="chevrons-up-line" unicode="&#xef3d;" 
d="M725 469q-9 0 -15 7l-198 198l-198 -198q-7 -7 -15.5 -7t-15 6.5t-6.5 15t7 15.5l213 213q6 6 15 6t15 -6l213 -213q3 -3 5 -7t2 -8t-2 -8t-5 -7q-6 -7 -15 -7zM725 171q-9 0 -15 6l-198 198l-198 -198q-7 -6 -15.5 -6t-15 6t-6.5 15t7 15l213 213q6 7 15 7t15 -7
l213 -213q2 -2 3.5 -4t2 -4t1 -4.5t0 -5t-1 -4.5t-2 -4t-3.5 -4q-6 -6 -15 -6z" />
    <glyph glyph-name="chrome-line" unicode="&#xef3e;" 
d="M512 0q-185 0 -316.5 131.5t-131.5 316.5t131.5 316.5t316.5 131.5t316.5 -131.5t131.5 -316.5t-131.5 -316.5t-316.5 -131.5zM512 853q-110 0 -203.5 -54t-147.5 -147.5t-54 -203.5q0 -82 32 -157t86.5 -129.5t129.5 -86.5t157 -32q110 0 203.5 54t147.5 147.5t54 203.5
q0 66 -20.5 128t-58 111.5t-87 87t-111.5 58t-128 20.5zM512 256q-79 0 -135.5 56.5t-56.5 135.5t56.5 135.5t135.5 56.5t135.5 -56.5t56.5 -135.5t-56.5 -135.5t-135.5 -56.5zM512 597q-62 0 -105.5 -43.5t-43.5 -105.5t43.5 -105.5t105.5 -43.5t105.5 43.5t43.5 105.5
q0 40 -20 74.5t-54.5 54.5t-74.5 20zM903 597h-391q-9 0 -15 6.5t-6 15.5q0 3 1 6.5t3 6t4.5 4.5t6 3t6.5 1h391q5 0 8.5 -1.5t6.5 -4.5t5 -7t2 -8q0 -17 -17 -21q-3 -1 -5 -1zM364.5 341q-5.5 0 -10.5 3t-8 8l-196 339q-4 7 -2 15.5t10 13.5q5 3 10.5 3t10.5 -3t8 -8
l196 -339q2 -3 2.5 -7.5t-0.5 -8.5t-3.5 -7.5t-6.5 -5.5q-5 -3 -10.5 -3zM464 3q-3 0 -5.5 0.5t-4.5 1.5q-8 5 -10.5 13.5t2.5 16.5l195 338q5 8 13.5 10.5t16 -2t10 -13t-2.5 -16.5l-195 -339q-3 -5 -8 -7.5t-11 -2.5z" />
    <glyph glyph-name="circle-line" unicode="&#xef3f;" 
d="M512 0q-185 0 -316.5 131.5t-131.5 316.5t131.5 316.5t316.5 131.5t316.5 -131.5t131.5 -316.5t-131.5 -316.5t-316.5 -131.5zM512 853q-110 0 -203.5 -54t-147.5 -147.5t-54 -203.5q0 -82 32 -157t86.5 -129.5t129.5 -86.5t157 -32q110 0 203.5 54t147.5 147.5t54 203.5
q0 66 -20.5 128t-58 111.5t-87 87t-111.5 58t-128 20.5z" />
    <glyph glyph-name="clipboard-line" unicode="&#xef40;" 
d="M768 0h-512q-22 0 -41.5 8.5t-34 23t-23 34t-8.5 41.5v597q0 44 31.5 75.5t75.5 31.5h85q9 0 15.5 -6.5t6.5 -15.5q0 -5 -3 -10t-8 -8t-11 -3h-85q-17 0 -32 -8.5t-23.5 -23.5t-8.5 -32v-597q0 -27 19 -45.5t45 -18.5h512q26 0 45 18.5t19 45.5v597q0 13 -5 25
t-13.5 20.5t-20.5 13.5t-25 5h-85q-9 0 -15.5 6.5t-6.5 14.5q0 5 2 9t4.5 6.5t6.5 4.5t9 2h85q44 0 75.5 -31.5t31.5 -75.5v-597q0 -44 -31.5 -75.5t-75.5 -31.5zM640 683h-256q-17 0 -32 8.5t-23.5 23t-8.5 32.5v85q0 26 19 45t45 19h256q26 0 45 -19t19 -45v-85
q0 -18 -8.5 -32.5t-23.5 -23t-32 -8.5zM384 853q-9 0 -15 -6t-6 -15v-85q0 -9 6 -15.5t15 -6.5h256q3 0 5.5 1t5 2.5t4.5 3.5t3.5 4t2 5t0.5 6v85q0 9 -6 15t-15 6h-256z" />
    <glyph glyph-name="clock-line" unicode="&#xef41;" 
d="M512 0q-185 0 -316.5 131.5t-131.5 316.5t131.5 316.5t316.5 131.5t316.5 -131.5t131.5 -316.5t-131.5 -316.5t-316.5 -131.5zM512 853q-110 0 -203.5 -54t-147.5 -147.5t-54 -203.5q0 -82 32 -157t86.5 -129.5t129.5 -86.5t157 -32q110 0 203.5 54t147.5 147.5t54 203.5
q0 66 -20.5 128t-58 111.5t-87 87t-111.5 58t-128 20.5zM683 341q-5 0 -10 3l-171 85q-11 6 -11 19v256q0 3 1 6.5t3 6t4.5 4.5t6 3t6.5 1q4 0 8 -1.5t7 -4.5t4.5 -7t1.5 -8v-243l159 -79q4 -2 7 -5.5t4 -7t1 -8t-2 -8.5q-6 -12 -19 -12z" />
    <glyph glyph-name="cloud-drizzle-line" unicode="&#xef42;" 
d="M341 43q-8 0 -14.5 6t-6.5 15v85q0 9 6.5 15.5t15 6.5t15 -6.5t6.5 -15.5v-85q0 -2 -0.5 -4.5t-2 -4.5t-2.5 -4t-3 -3.5t-4 -2.5t-4.5 -1.5t-5.5 -0.5zM341.5 299q-5.5 0 -10.5 2.5t-8 7.5t-3 11v85q0 9 6.5 15.5t15 6.5t15 -6.5t6.5 -15.5v-85q0 -6 -3 -11t-8 -7.5
t-10.5 -2.5zM683 43q-9 0 -15.5 6t-6.5 15v85q0 9 6.5 15.5t15 6.5t15 -6.5t6.5 -15.5v-85q0 -4 -1.5 -8t-4.5 -7t-7 -4.5t-8 -1.5zM682.5 299q-5.5 0 -10.5 2.5t-8 7.5t-3 11v85q0 9 6.5 15.5t15 6.5t15 -6.5t6.5 -15.5v-85q0 -6 -3 -11t-8 -7.5t-10.5 -2.5zM512 -43
q-9 0 -15 6.5t-6 15.5v85q0 9 6 15t15 6q4 0 8 -1.5t7 -4.5t4.5 -7t1.5 -8v-85q0 -5 -1.5 -9t-4.5 -6.5t-7 -4.5t-8 -2zM512 213q-6 0 -11 3t-7.5 8t-2.5 11v85q0 9 6 15t15 6q4 0 8 -1.5t7 -4.5t4.5 -7t1.5 -8v-85q0 -9 -6 -15.5t-15 -6.5zM853 231q-14 0 -19 13
q-2 3 -2 6.5t0.5 6.5t2 6t4.5 5.5t6 3.5q73 32 101.5 106t-2.5 147q-23 52 -71 83.5t-105 31.5h-54q-5 0 -9 2t-7 5.5t-4 8.5q-22 84 -82 144.5t-142 84t-166 1.5q-31 -8 -59.5 -22t-53.5 -32.5t-46 -42t-37 -50.5q-32 -56 -41 -118.5t7 -124.5q27 -103 110 -170
q7 -6 8 -14.5t-4.5 -15.5t-14.5 -8t-16 5q-94 75 -124 192q-38 146 38 275q37 63 94.5 106t127.5 61q70 19 139.5 8t128.5 -43t104 -86.5t65 -122.5h38q70 0 128.5 -38.5t86.5 -102.5q39 -89 3.5 -179.5t-124.5 -129.5q-4 -2 -9 -2z" />
    <glyph glyph-name="cloud-lightning-line" unicode="&#xef43;" 
d="M811 218q-18 0 -21 17q-1 5 0.5 10.5t6 9.5t9.5 5q38 8 69.5 29t52.5 53q44 66 28 144q-9 44 -36 79.5t-67 55t-85 19.5h-54q-7 0 -13 4.5t-7 11.5q-22 84 -82 144.5t-142 83.5t-166 2q-62 -16 -112.5 -54t-83.5 -94q-22 -36 -33 -76.5t-11.5 -82t10.5 -83.5
q16 -64 56.5 -116t98.5 -84q8 -4 10 -12.5t-2 -16.5t-12.5 -10.5t-16.5 2.5q-65 36 -111 95t-64 131q-38 146 38 275q37 63 94.5 106t127.5 61q93 24 183.5 0t158.5 -89t95 -155h38q84 0 149 -53.5t81 -134.5q20 -96 -34 -177q-26 -39 -64.5 -65t-84.5 -35h-2h-2zM469 -43
q-6 0 -11 4q-8 5 -9.5 13.5t3.5 15.5l148 223h-216q-13 0 -19 11.5t1 21.5l171 256q5 8 13.5 9.5t16 -3t9 -13.5t-3.5 -16l-148 -223h216q6 0 11 -3t8 -8q6 -11 -1 -22l-171 -256q-7 -9 -18 -10z" />
    <glyph glyph-name="cloud-line" unicode="&#xef44;" 
d="M384 85q-124 0 -222 76t-129 196q-25 96 1 189t95 161t164 92q93 24 183.5 0t158.5 -89t95 -155h38q97 0 166 -69t69 -166t-69 -166t-166 -69h-384zM384 768q-41 0 -80 -10q-84 -22 -145 -82t-84 -142t-1 -166q27 -106 113.5 -173t196.5 -67h384q79 0 135.5 56.5
t56.5 135.5t-56.5 135.5t-135.5 56.5h-54q-5 0 -9 2t-7 5.5t-4 8.5q-28 107 -115 173.5t-195 66.5z" />
    <glyph glyph-name="cloud-off-line" unicode="&#xef45;" 
d="M378 85q-99 0 -184 50.5t-133 136.5q-36 65 -43 137.5t12 138.5t64 124t109 93q8 5 16.5 2.5t12.5 -10.5q1 -3 2 -5.5t1 -5.5t-1 -5.5t-2.5 -5t-3.5 -4.5t-4 -3q-56 -31 -95.5 -80.5t-57.5 -111.5q-37 -127 27 -243q43 -78 120 -122.5t166 -42.5h384q34 0 65 11q4 2 7 2
t6.5 -1t6 -3t4.5 -4.5t4 -5.5q1 -4 1 -8.5t-2 -8t-5 -6.5t-7 -5q-39 -14 -80 -14h-384h-3h-3zM965 215q-5 0 -9 2q-8 4 -11 12t0 16q31 73 1 147t-103 105q-36 15 -75 15h-54q-16 0 -20 16q-10 39 -29.5 74.5t-46 64t-59 50t-70 35t-77.5 16.5q-9 1 -15 7.5t-5 15.5t8 14.5
t15 5.5q111 -10 197 -80t118 -176h38q48 0 92 -19q89 -38 125.5 -128t-1.5 -180q-2 -6 -7.5 -9.5t-11.5 -3.5zM981 -43q-1 0 -3 0.5t-3.5 1l-3 1t-3 1.5t-2.5 3l-938 938q-7 7 -7 15.5t6.5 15t15.5 6.5t15 -7l938 -938q7 -6 7 -15t-7 -15q-6 -6 -15 -7z" />
    <glyph glyph-name="cloud-rain-line" unicode="&#xef46;" 
d="M682.5 43q-8.5 0 -15 6t-6.5 15v341q0 9 6.5 15.5t15 6.5t15 -6.5t6.5 -15.5v-341q0 -9 -6.5 -15t-15 -6zM341 43q-8 0 -14.5 6t-6.5 15v341q0 9 6.5 15.5t15 6.5t15 -6.5t6.5 -15.5v-341q0 -6 -3 -11t-8 -7.5t-11 -2.5zM512 -43q-9 0 -15 6.5t-6 15.5v341q0 9 6 15t15 6
q4 0 8 -1.5t7 -4.5t4.5 -7t1.5 -8v-341q0 -5 -1.5 -9t-4.5 -6.5t-7 -4.5t-8 -2zM853 231q-14 0 -19 13q-2 3 -2 6.5t0.5 6.5t2 6t4.5 5.5t6 3.5q73 32 101.5 106t-2.5 147q-23 52 -71 83.5t-105 31.5h-54q-5 0 -9 2t-7 5.5t-4 8.5q-22 84 -82 144.5t-142 84t-166 1.5
q-31 -8 -59.5 -22t-53.5 -32.5t-46 -42t-37 -50.5q-32 -56 -41 -118.5t7 -124.5q27 -103 110 -170q7 -6 8 -14.5t-4.5 -15.5t-14.5 -8t-16 5q-94 75 -124 192q-38 146 38 275q37 63 94.5 106t127.5 61q70 19 139.5 8t128.5 -43t104 -86.5t65 -122.5h38q70 0 128.5 -38.5
t86.5 -102.5q39 -89 3.5 -179.5t-124.5 -129.5q-4 -2 -9 -2z" />
    <glyph glyph-name="cloud-snow-line" unicode="&#xef47;" 
d="M853 189q-14 0 -19 12q-4 8 -0.5 16.5t11.5 11.5q73 32 101.5 106.5t-2.5 146.5q-23 53 -71 84t-105 31h-54q-7 0 -13 4.5t-7 11.5q-22 84 -82 145t-142 84t-166 1q-62 -16 -112.5 -54t-83 -93t-41.5 -118t7 -125q27 -103 110 -170q7 -5 8 -14t-4.5 -16t-14.5 -8t-16 5
q-94 76 -124 193q-38 145 38 274q37 63 94.5 106t127.5 61q93 24 183.5 0t158.5 -88.5t95 -155.5h38q70 0 128.5 -38.5t86.5 -102.5q39 -88 3.5 -179t-124.5 -130q-4 -1 -9 -1zM342 256q-6 0 -11 3t-8 8t-3 10q0 9 6.5 15.5t15.5 6.5t15 -6.5t6 -15t-6 -15t-15 -6.5zM342 85
q-6 0 -11 3t-8 8t-3 11q0 9 6.5 15t15.5 6t15 -6.5t6 -15t-6 -15t-15 -6.5zM512.5 171q-5.5 0 -10.5 2.5t-8 7.5t-3 11q0 9 6 15t15 6q6 0 11 -2.5t8 -7.5t3 -11t-3 -11t-8 -7.5t-10.5 -2.5zM512.5 0q-5.5 0 -10.5 3t-8 8t-3 10q0 9 6 15.5t15 6.5t15.5 -6.5t6.5 -15.5
q0 -5 -3 -10t-8 -8t-10.5 -3zM683 256q-9 0 -15 6.5t-6 15t6 15t15 6.5t15 -6.5t6 -15t-6 -15t-15 -6.5zM683 85q-3 0 -6.5 1t-6 3t-4.5 5t-3 6t-1 7q0 9 6 15t15 6t15 -6.5t6 -15t-6 -15t-15 -6.5z" />
    <glyph glyph-name="code-line" unicode="&#xef48;" 
d="M683 171q-9 0 -15 6q-2 2 -3.5 4.5t-2.5 5t-1 5.5t1 5.5t2.5 5t3.5 4.5l241 241l-241 241q-2 2 -3.5 4.5t-2.5 5t-1 5.5t1 5.5t2.5 5t3.5 4.5q6 6 15 6t15 -6l256 -256q6 -6 6 -15t-6 -15l-256 -256q-7 -6 -15 -6zM341 171q-9 0 -15 6l-256 256q-3 3 -4.5 7t-1.5 8t1.5 8
t4.5 7l256 256q7 6 15.5 6t14.5 -6q3 -2 4.5 -5t2 -6.5t0 -6.5t-2 -6.5t-4.5 -5.5l-240 -241l240 -241q7 -6 7 -15t-7 -15q-1 -1 -2.5 -2l-3 -2t-3 -1.5t-3 -0.5h-3.5z" />
    <glyph glyph-name="codepen-line" unicode="&#xef49;" 
d="M512 0q-6 0 -12 3l-426 278q-10 6 -10 18v298q0 6 2.5 10.5t7.5 7.5l426 278q12 7 24 0l426 -278q10 -6 10 -18v-298q0 -12 -10 -18l-426 -278q-6 -3 -12 -3zM107 310l405 -263l405 263v276l-405 263l-405 -263v-276zM512 0q-9 0 -15 6.5t-6 14.5v278q0 8 6 14.5t15 6.5
q4 0 8 -1.5t7 -4.5t4.5 -7t1.5 -8v-278q0 -8 -6 -14.5t-15 -6.5zM512 277q-3 0 -6.5 1t-5.5 3l-427 299q-3 2 -5 4.5t-3 6t-1 6.5t1 6.5t3 6.5q5 7 13.5 8.5t16.5 -3.5l414 -290l414 290q8 5 16.5 3.5t13.5 -9t3.5 -16t-8.5 -13.5l-427 -299q-2 -2 -5.5 -3t-6.5 -1zM939 277
q-2 0 -4.5 0.5t-4.5 1.5l-4 2l-414 290l-414 -290q-8 -5 -16.5 -3.5t-13.5 9t-3.5 16t8.5 13.5l427 299q12 8 24 0l427 -299q7 -5 8.5 -13.5t-3.5 -16.5q-6 -9 -17 -9zM512 576q-9 0 -15 6.5t-6 14.5v278q0 5 2.5 10t7.5 8t11 3q4 0 8 -1.5t7 -4.5t4.5 -7t1.5 -8v-278
q0 -4 -1.5 -8t-4.5 -7t-7 -4.5t-8 -1.5z" />
    <glyph glyph-name="codesandbox-line" unicode="&#xef4a;" 
d="M512 0q-7 0 -14 1t-13.5 2.5t-13 4.5t-12.5 6l-299 171q-16 9 -28 23.5t-18.5 32t-6.5 36.5v342q0 28 14 53t39 39l299 171q12 7 25.5 10.5t27.5 3.5t27.5 -3.5t25.5 -10.5l299 -171q16 -9 28 -23.5t18.5 -32.5t6.5 -36v-342q0 -28 -14 -53t-39 -39l-299 -171
q-24 -14 -53 -14zM512 853q-17 0 -32 -8l-299 -171q-32 -18 -32 -55v-342q0 -37 32 -55l299 -171q32 -18 64 0l299 171q32 18 32 55v342q0 11 -4 21.5t-11.5 19t-16.5 14.5l-299 171q-7 4 -15.5 6t-16.5 2zM512 648q-6 0 -11 3l-192 111q-7 4 -9.5 12.5t2 16.5t13 10
t16.5 -2l181 -105l181 105q6 3 11.5 3t10.5 -3t7 -8q5 -8 2.5 -16.5t-9.5 -12.5l-192 -111q-5 -3 -11 -3zM320 94q-9 0 -15 6.5t-6 15.5v209l-182 105q-7 4 -9.5 12.5t2 16t13 10t16.5 -2.5l192 -110q10 -7 10 -19v-221q0 -9 -6 -15.5t-15 -6.5zM704 94q-4 0 -8 2t-7 4.5
t-4.5 6.5t-1.5 9v221q0 6 2.5 11t7.5 8l192 110q8 5 16.5 2.5t12.5 -9.5q3 -4 3.5 -8.5t-0.5 -8t-4 -7t-6 -5.5l-182 -105v-209q0 -9 -6 -15.5t-15 -6.5zM512 426q-3 0 -5.5 1t-5.5 2l-372 216q-8 4 -10 12.5t2 16t13 10t16 -1.5l362 -210l362 210q5 2 10.5 2t10.5 -2.5
t8 -7.5q3 -6 3 -11t-3 -10.5t-8 -7.5l-372 -216zM512 -3q-9 0 -15 6t-6 15v430q0 9 6 15t15 6q3 0 6.5 -1t6 -3t4.5 -4.5t3 -6t1 -6.5v-430q0 -9 -6 -15t-15 -6z" />
    <glyph glyph-name="coffee-line" unicode="&#xef4b;" 
d="M811 256h-43q-4 0 -8 1.5t-7 4.5t-4.5 7t-1.5 8q0 9 6 15.5t15 6.5h43q61 0 105 43.5t44 105.5t-44 105.5t-105 43.5h-43q-4 0 -8 2t-7 4.5t-4.5 6.5t-1.5 9q0 8 6 14.5t15 6.5h43q79 0 135.5 -56.5t56.5 -135.5q0 -52 -26 -96.5t-70 -70t-96 -25.5zM597 43h-341
q-79 0 -135.5 56t-56.5 136v384q0 8 6.5 14.5t14.5 6.5h683q4 0 8 -1.5t7 -4.5t4.5 -7t1.5 -8v-384q0 -52 -25.5 -96.5t-70 -70t-96.5 -25.5zM107 597v-362q0 -62 43.5 -106t105.5 -44h341q62 0 106 44t44 106v362h-640zM256 768q-9 0 -15 6.5t-6 14.5v128q0 9 6 15.5
t15 6.5t15 -6.5t6 -15.5v-128q0 -8 -6 -14.5t-15 -6.5zM427 768q-9 0 -15.5 6.5t-6.5 14.5v128q0 9 6.5 15.5t15 6.5t15 -6.5t6.5 -15.5v-128q0 -5 -3 -10t-8 -8t-10 -3zM597.5 768q-8.5 0 -15 6.5t-6.5 14.5v128q0 9 6.5 15.5t15 6.5t15 -6.5t6.5 -15.5v-128
q0 -8 -6.5 -14.5t-15 -6.5z" />
    <glyph glyph-name="columns-line" unicode="&#xef4c;" 
d="M811 43h-598q-44 0 -75 31t-31 75v598q0 44 31 75t75 31h598q21 0 41 -8.5t34 -22.5t22.5 -34t8.5 -41v-598q0 -44 -31 -75t-75 -31zM533 85h278q26 0 45 19t19 45v598q0 26 -19 45t-45 19h-278v-726zM213 811q-17 0 -32 -8.5t-23.5 -23.5t-8.5 -32v-598q0 -26 19 -45
t45 -19h278v726h-278z" />
    <glyph glyph-name="command-line" unicode="&#xef4d;" 
d="M768 43q-62 0 -105.5 43.5t-43.5 105.5v107h-214v-107q0 -62 -43.5 -105.5t-105.5 -43.5t-105.5 43.5t-43.5 105.5t43.5 105.5t105.5 43.5h107v214h-107q-62 0 -105.5 43.5t-43.5 105.5t43.5 105.5t105.5 43.5q40 0 74.5 -20t54.5 -54.5t20 -74.5v-107h214v107
q0 62 43.5 105.5t105.5 43.5q40 0 74.5 -20t54.5 -54.5t20 -74.5t-20 -74.5t-54.5 -54.5t-74.5 -20h-107v-214h107q62 0 105.5 -43.5t43.5 -105.5q0 -40 -20 -74.5t-54.5 -54.5t-74.5 -20zM661 299v-107q0 -44 31.5 -75.5t75.5 -31.5t75.5 31.5t31.5 75.5t-31.5 75.5
t-75.5 31.5h-107zM256 299q-22 0 -41.5 -8.5t-34 -23t-23 -34t-8.5 -41.5q0 -44 31.5 -75.5t75.5 -31.5t75.5 31.5t31.5 75.5v107h-107zM405 341h214v214h-214v-214zM661 597h107q44 0 75.5 31.5t31.5 75.5q0 17 -5.5 33.5t-15.5 29.5t-23 23t-29.5 15.5t-33.5 5.5
q-44 0 -75.5 -31.5t-31.5 -75.5v-107zM256 811q-22 0 -41.5 -8.5t-34 -23t-23 -34t-8.5 -41.5q0 -44 31.5 -75.5t75.5 -31.5h107v107q0 29 -14.5 53.5t-39 39t-53.5 14.5z" />
    <glyph glyph-name="compass-line" unicode="&#xef4e;" 
d="M512 0q-185 0 -316.5 131.5t-131.5 316.5t131.5 316.5t316.5 131.5t316.5 -131.5t131.5 -316.5t-131.5 -316.5t-316.5 -131.5zM512 853q-110 0 -203.5 -54t-147.5 -147.5t-54 -203.5q0 -82 32 -157t86.5 -129.5t129.5 -86.5t157 -32q110 0 203.5 54t147.5 147.5t54 203.5
q0 66 -20.5 128t-58 111.5t-87 87t-111.5 58t-128 20.5zM331 246q-4 0 -8 1.5t-7 4.5q-9 9 -5 22l90 271q4 10 14 14l271 90q4 1 8 1t7.5 -1.5t6.5 -4.5q9 -9 5 -22l-90 -271q-4 -10 -14 -14l-271 -90q-3 -1 -7 -1zM438 522l-73 -221l221 73l73 221z" />
    <glyph glyph-name="copy-line" unicode="&#xef4f;" 
d="M853 0h-384q-44 0 -75 31.5t-31 75.5v384q0 44 31 75t75 31h384q29 0 53.5 -14t39 -38.5t14.5 -53.5v-384q0 -44 -31.5 -75.5t-75.5 -31.5zM469 555q-17 0 -32 -8.5t-23.5 -23.5t-8.5 -32v-384q0 -18 8.5 -32.5t23.5 -23t32 -8.5h384q27 0 45.5 18.5t18.5 45.5v384
q0 13 -5 24.5t-13.5 20.5t-20.5 14t-25 5h-384zM213 299h-42q-44 0 -75.5 31t-31.5 75v384q0 44 31.5 75.5t75.5 31.5h384q29 0 53.5 -14.5t38.5 -39t14 -53.5v-42q0 -5 -1.5 -9t-4.5 -6.5t-7 -4.5t-8 -2t-8 2t-7 4.5t-4.5 6.5t-1.5 9v42q0 13 -5 25t-14 20.5t-20.5 13.5
t-24.5 5h-384q-27 0 -45.5 -18.5t-18.5 -45.5v-384q0 -26 18.5 -45t45.5 -19h42q9 0 15.5 -6t6.5 -15t-6.5 -15t-15.5 -6z" />
    <glyph glyph-name="corner-down-left-line" unicode="&#xef50;" 
d="M384 85q-9 0 -15 7l-213 213q-7 6 -7 15t7 15l213 213q2 2 4.5 3.5t5 2.5t5.5 1t5.5 -1t5 -2.5t4.5 -3.5q6 -6 6 -14.5t-6 -15.5l-198 -198l198 -198q6 -7 6 -15.5t-6 -15t-15 -6.5zM683 299h-512q-6 0 -11 2.5t-8 7.5t-3 11q0 9 6.5 15t15.5 6h512q61 0 105 44t44 106
v298q0 5 1.5 9t4.5 6.5t7 4.5t8 2q9 0 15.5 -6.5t6.5 -15.5v-298q0 -80 -56.5 -136t-135.5 -56z" />
    <glyph glyph-name="corner-down-right-line" unicode="&#xef51;" 
d="M640 85q-9 0 -15 6.5t-6 15.5t6 15l198 198l-198 198q-6 7 -6 15.5t6 15t15 6.5t15 -7l213 -213q7 -6 7 -15t-7 -15l-213 -213q-6 -7 -15 -7zM853 299h-512q-39 0 -74.5 15t-61 41t-41 61.5t-15.5 74.5v298q0 9 6.5 15.5t15 6.5t15 -6.5t6.5 -15.5v-298q0 -31 12 -58.5
t32 -47.5t47.5 -32t57.5 -12h512q9 0 15.5 -6t6.5 -15t-6.5 -15t-15.5 -6z" />
    <glyph glyph-name="corner-left-down-line" unicode="&#xef52;" 
d="M384 85q-9 0 -15 7l-213 213q-7 6 -7 15t6.5 15t15.5 6t15 -6l198 -198l198 198q7 6 15.5 6t15 -6t6.5 -15t-7 -15l-213 -213q-3 -3 -7 -5t-8 -2zM384 85q-6 0 -11 3t-7.5 8t-2.5 11v512q0 79 56 135.5t136 56.5h298q5 0 9 -2t6.5 -4.5t4.5 -6.5t2 -9q0 -8 -6.5 -14.5
t-15.5 -6.5h-298q-25 0 -47.5 -7.5t-41 -21.5t-32.5 -32t-21.5 -41t-7.5 -47v-512q0 -9 -6 -15.5t-15 -6.5z" />
    <glyph glyph-name="corner-left-up-line" unicode="&#xef53;" 
d="M597 555q-9 0 -15 6l-198 198l-198 -198q-2 -2 -4 -3t-4.5 -2t-4.5 -1h-4.5t-4.5 1t-4.5 2t-3.5 3q-7 6 -7 15t7 15l213 213q15 12 30 0l213 -213q7 -6 7 -15t-6.5 -15t-15.5 -6zM853 85h-298q-80 0 -136 56.5t-56 135.5v512q0 9 6 15.5t15 6.5t15 -6.5t6 -15.5v-512
q0 -61 44 -105t106 -44h298q6 0 11 -3t8 -8t3 -10q0 -9 -6.5 -15.5t-15.5 -6.5z" />
    <glyph glyph-name="corner-right-down-line" unicode="&#xef54;" 
d="M640 85q-9 0 -15 7l-213 213q-7 6 -7 15t6.5 15t15.5 6t15 -6l198 -198l198 198q7 6 15.5 6t15 -6t6.5 -15t-7 -15l-213 -213q-3 -3 -7 -5t-8 -2zM640 85q-4 0 -8 2t-7 4.5t-4.5 6.5t-1.5 9v512q0 61 -44 105t-106 44h-298q-9 0 -15.5 6t-6.5 15q0 6 3 11t8 8t11 3h298
q52 0 96.5 -26t70 -70t25.5 -96v-512q0 -9 -6 -15.5t-15 -6.5z" />
    <glyph glyph-name="corner-right-up-line" unicode="&#xef55;" 
d="M853 555q-9 0 -15 6l-198 198l-198 -198q-2 -2 -4.5 -3.5t-5.5 -2t-5.5 -0.5t-5 0.5t-5 2t-4.5 3.5q-7 6 -7 15t7 15l213 213q3 4 7 5.5t8 1.5t8 -1.5t7 -5.5l213 -213q3 -3 5 -7t2 -8t-2 -8t-5 -7q-6 -6 -15 -6zM469 85h-298q-9 0 -15.5 6.5t-6.5 15.5q0 5 3 10t8 8
t11 3h298q62 0 106 44t44 105v512q0 9 6 15.5t15 6.5q4 0 8 -2t7 -4.5t4.5 -6.5t1.5 -9v-512q0 -52 -25.5 -96t-70 -70t-96.5 -26z" />
    <glyph glyph-name="corner-up-left-line" unicode="&#xef56;" 
d="M384 341q-9 0 -15 7l-213 213q-7 6 -7 15t7 15l213 213q3 4 7 5.5t8 1.5t8 -1.5t7 -5.5q6 -6 6 -14.5t-6 -15.5l-198 -198l198 -198q3 -3 4.5 -6t2 -6t0 -6.5t-2 -6.5t-4.5 -5q-6 -7 -15 -7zM853.5 85q-8.5 0 -15 6.5t-6.5 15.5v298q0 41 -20 75.5t-54.5 54.5t-74.5 20
h-512q-9 0 -15.5 6t-6.5 15q0 6 3 11t8 7.5t11 2.5h512q79 0 135.5 -56t56.5 -136v-298q0 -9 -6.5 -15.5t-15 -6.5z" />
    <glyph glyph-name="corner-up-right-line" unicode="&#xef57;" 
d="M640 341q-9 0 -15 6.5t-6 15.5t6 15l198 198l-198 198q-6 7 -6 15.5t6 15t15 6.5t15 -7l213 -213q7 -6 7 -15t-7 -15l-213 -213q-2 -2 -4.5 -3.5t-5 -2.5t-5.5 -1zM171 85q-9 0 -15.5 6.5t-6.5 15.5v298q0 80 56.5 136t135.5 56h512q5 0 9 -1.5t6.5 -4.5t4.5 -7t2 -8
t-2 -8t-4.5 -7t-6.5 -4.5t-9 -1.5h-512q-61 0 -105 -44t-44 -106v-298q0 -6 -3 -11t-8 -8t-10 -3z" />
    <glyph glyph-name="cpu-line" unicode="&#xef58;" 
d="M768 85h-512q-17 0 -33.5 5.5t-29.5 15.5t-23 23t-15.5 29.5t-5.5 33.5v512q0 44 31.5 75.5t75.5 31.5h512q44 0 75.5 -31.5t31.5 -75.5v-512q0 -44 -31.5 -75.5t-75.5 -31.5zM256 768q-26 0 -45 -19t-19 -45v-512q0 -26 19 -45t45 -19h512q26 0 45 19t19 45v512
q0 26 -19 45t-45 19h-512zM640 299h-256q-6 0 -11 2.5t-7.5 7.5t-2.5 11v256q0 3 1 6.5t3 6t4.5 4.5t6 3t6.5 1h256q4 0 8 -1.5t7 -4.5t4.5 -7t1.5 -8v-256q0 -9 -6 -15t-15 -6zM405 341h214v214h-214v-214zM384 768q-9 0 -15 6.5t-6 14.5v128q0 9 6 15.5t15 6.5t15 -6.5
t6 -15.5v-128q0 -8 -6 -14.5t-15 -6.5zM640 768q-4 0 -8 1.5t-7 4.5t-4.5 7t-1.5 8v128q0 9 6 15.5t15 6.5q4 0 8 -2t7 -4.5t4.5 -6.5t1.5 -9v-128q0 -8 -6 -14.5t-15 -6.5zM384 -43q-9 0 -15 6.5t-6 15.5v128q0 8 6 14.5t15 6.5t15 -6.5t6 -14.5v-128q0 -5 -1.5 -9
t-4.5 -6.5t-7 -4.5t-8 -2zM640 -43q-4 0 -8 2t-7 4.5t-4.5 6.5t-1.5 9v128q0 8 6 14.5t15 6.5q4 0 8 -1.5t7 -4.5t4.5 -7t1.5 -8v-128q0 -5 -1.5 -9t-4.5 -6.5t-7 -4.5t-8 -2zM981 555h-128q-8 0 -14.5 6t-6.5 15q0 4 1.5 8t4.5 7t7 4.5t8 1.5h128q9 0 15.5 -6t6.5 -15
q0 -6 -3 -11t-8 -7.5t-11 -2.5zM981 341h-128q-5 0 -10 3t-8 8t-3 11q0 8 6.5 14.5t14.5 6.5h128q9 0 15.5 -6.5t6.5 -15t-6.5 -15t-15.5 -6.5zM171 555h-128q-9 0 -15.5 6t-6.5 15q0 4 2 8t4.5 7t6.5 4.5t9 1.5h128q8 0 14.5 -6t6.5 -15q0 -4 -1.5 -8t-4.5 -7t-7 -4.5
t-8 -1.5zM171 341h-128q-6 0 -11 3t-8 8t-3 11q0 8 6.5 14.5t15.5 6.5h128q8 0 14.5 -6.5t6.5 -15t-6.5 -15t-14.5 -6.5z" />
    <glyph glyph-name="credit-card-line" unicode="&#xef59;" 
d="M896 85h-768q-44 0 -75.5 31.5t-31.5 75.5v512q0 29 14.5 53.5t39 39t53.5 14.5h768q44 0 75.5 -31.5t31.5 -75.5v-512q0 -44 -31.5 -75.5t-75.5 -31.5zM128 768q-26 0 -45 -19t-19 -45v-512q0 -26 19 -45t45 -19h768q26 0 45 19t19 45v512q0 26 -19 45t-45 19h-768z
M981 512h-938q-9 0 -15.5 6.5t-6.5 15t6.5 15t15.5 6.5h938q9 0 15.5 -6.5t6.5 -15t-6.5 -15t-15.5 -6.5z" />
    <glyph glyph-name="crop-line" unicode="&#xef5a;" 
d="M981 171h-640q-17 0 -33.5 5t-29.5 15t-23 23t-15 29.5t-5 33.5l5 641q0 8 6.5 14.5t15.5 6.5t15 -6.5t6 -15.5l-6 -640q0 -13 5 -24.5t14 -20t20.5 -14t24.5 -5.5h640q9 0 15.5 -6t6.5 -15t-6.5 -15t-15.5 -6zM768 -43q-4 0 -8 2t-7 4.5t-4.5 6.5t-1.5 9v640
q0 17 -8.5 32t-23.5 23.5t-32 8.5l-640 -6q-6 0 -11 3t-8 7.5t-3 10.5q0 2 0.5 4.5t1.5 4t2 3.5t2.5 3.5t3 2.5t3.5 2t4 1.5t4 0.5l640 5q45 0 76 -31t31 -75v-640q0 -9 -6 -15.5t-15 -6.5z" />
    <glyph glyph-name="crosshair-line" unicode="&#xef5b;" 
d="M512 0q-185 0 -316.5 131.5t-131.5 316.5t131.5 316.5t316.5 131.5t316.5 -131.5t131.5 -316.5t-131.5 -316.5t-316.5 -131.5zM512 853q-110 0 -203.5 -54t-147.5 -147.5t-54 -203.5q0 -82 32 -157t86.5 -129.5t129.5 -86.5t157 -32q110 0 203.5 54t147.5 147.5t54 203.5
q0 66 -20.5 128t-58 111.5t-87 87t-111.5 58t-128 20.5zM939 427h-171q-6 0 -11 2.5t-7.5 7.5t-2.5 11q0 9 6 15t15 6h171q8 0 14.5 -6t6.5 -15t-6.5 -15t-14.5 -6zM256 427h-171q-5 0 -10 2.5t-8 7.5t-3 11t3 11t8 7.5t10 2.5h171q9 0 15 -6t6 -15t-6 -15t-15 -6zM512 683
q-9 0 -15 6t-6 15v171q0 8 6 14.5t15 6.5q4 0 8 -1.5t7 -4.5t4.5 -7t1.5 -8v-171q0 -4 -1.5 -8t-4.5 -7t-7 -4.5t-8 -1.5zM512 0q-9 0 -15 6.5t-6 14.5v171q0 9 6 15t15 6q6 0 11 -2.5t7.5 -7.5t2.5 -11v-171q0 -8 -6 -14.5t-15 -6.5z" />
    <glyph glyph-name="database-line" unicode="&#xef5c;" 
d="M512 597q-102 0 -192.5 16.5t-151.5 51.5t-61 81.5t61 81.5t151.5 51.5t192.5 16.5q75 0 146.5 -10t129.5 -28t93.5 -47t35.5 -64q0 -47 -61 -82t-151.5 -51.5t-192.5 -16.5zM512 853q-80 0 -150.5 -10t-115.5 -26t-71 -34.5t-26 -35.5t26 -35.5t71 -34.5t115.5 -26.5
t150.5 -10.5t150.5 10.5t115.5 26.5t71 34.5t26 35.5q0 11 -11.5 23t-32.5 24t-53.5 22.5t-71.5 19t-89.5 13t-104.5 4.5zM512 299q-104 0 -194.5 16t-150.5 51t-60 82q0 6 2.5 11t7.5 7.5t11 2.5q9 0 15 -6t6 -15q0 -17 26 -35.5t71 -34.5t115.5 -26.5t150.5 -10.5
q65 0 123.5 7t101.5 18t74.5 25t47.5 29t16 28q0 9 6 15t15 6t15 -6t6 -15q0 -74 -140 -116q-113 -33 -265 -33zM512 0q-104 0 -194.5 16.5t-150.5 51t-60 81.5v598q0 5 2.5 10t7.5 8t11 3q9 0 15 -6.5t6 -14.5v-598q0 -17 26 -35.5t71 -34.5t115.5 -26t150.5 -10t150.5 10
t115.5 26t71 34.5t26 35.5v598q0 5 2.5 10t7.5 8t11 3q9 0 15 -6.5t6 -14.5v-598q0 -73 -140 -115q-113 -34 -265 -34z" />
    <glyph glyph-name="delete-line" unicode="&#xef5d;" 
d="M896 85h-555q-9 0 -16 8l-298 341q-13 14 0 28l298 341q2 3 4.5 4.5t5.5 2.5t6 1h555q44 0 75.5 -31.5t31.5 -75.5v-512q0 -44 -31.5 -75.5t-75.5 -31.5zM351 128h545q26 0 45 19t19 45v512q0 26 -19 45t-45 19h-545l-280 -320zM512 299q-9 0 -15 6t-6 15t6 15l256 256
q6 6 15 6t15 -6t6 -15t-6 -15l-256 -256q-2 -2 -4.5 -3.5t-5 -2t-5.5 -0.5zM768 299q-9 0 -15 6l-256 256q-6 6 -6 15t6 15t15 6t15 -6l256 -256q2 -2 3 -4l2 -4t1.5 -4.5t0 -5t-1.5 -4.5l-2 -4t-3 -4q-7 -6 -15 -6z" />
    <glyph glyph-name="disc-line" unicode="&#xef5e;" 
d="M512 0q-185 0 -316.5 131.5t-131.5 316.5t131.5 316.5t316.5 131.5t316.5 -131.5t131.5 -316.5t-131.5 -316.5t-316.5 -131.5zM512 853q-110 0 -203.5 -54t-147.5 -147.5t-54 -203.5q0 -82 32 -157t86.5 -129.5t129.5 -86.5t157 -32q110 0 203.5 54t147.5 147.5t54 203.5
q0 66 -20.5 128t-58 111.5t-87 87t-111.5 58t-128 20.5zM512 299q-40 0 -74.5 20t-54.5 54.5t-20 74.5q0 62 43.5 105.5t105.5 43.5t105.5 -43.5t43.5 -105.5q0 -40 -20 -74.5t-54.5 -54.5t-74.5 -20zM512 555q-44 0 -75.5 -31.5t-31.5 -75.5q0 -22 8.5 -41.5t23 -34t34 -23
t41.5 -8.5q44 0 75.5 31.5t31.5 75.5t-31.5 75.5t-75.5 31.5z" />
    <glyph glyph-name="divide-circle-line" unicode="&#xef5f;" 
d="M683 427h-342q-5 0 -10 2.5t-8 7.5t-3 11q0 9 6.5 15t14.5 6h342q3 0 6.5 -1t6 -3t4.5 -4.5t3 -6t1 -6.5q0 -21 -21 -21zM512 256q-4 0 -8 2q-4 1 -7 4.5t-5 6.5q-1 4 -1 8.5t1 8.5q1 2 2 3.5t3 2.5q4 4 9.5 5.5t11 0t9.5 -5.5q3 -2 5 -6q1 -4 1 -8.5t-1 -8.5
q-1 -1 -1.5 -2.5t-1.5 -2.5l-2 -2q-3 -3 -7 -4q-4 -2 -8 -2zM512 597q-4 0 -8 2t-7 5q-2 2 -3.5 4t-2 5t-0.5 6q0 8 6 15q1 1 3 2l4 2q6 3 12.5 1.5t10.5 -5.5q6 -7 6 -15.5t-6 -15t-15 -6.5zM512 0q-185 0 -316.5 131.5t-131.5 316.5t131.5 316.5t316.5 131.5t316.5 -131.5
t131.5 -316.5t-131.5 -316.5t-316.5 -131.5zM512 853q-110 0 -203.5 -54t-147.5 -147.5t-54 -203.5q0 -82 32 -157t86.5 -129.5t129.5 -86.5t157 -32q110 0 203.5 54t147.5 147.5t54 203.5q0 66 -20.5 128t-58 111.5t-87 87t-111.5 58t-128 20.5z" />
    <glyph glyph-name="divide-line" unicode="&#xef60;" 
d="M512 597q-44 0 -75.5 31.5t-31.5 75.5q0 29 14.5 53.5t39 39t53.5 14.5q44 0 75.5 -31.5t31.5 -75.5q0 -17 -5.5 -33.5t-15.5 -29.5t-23 -23t-29.5 -15.5t-33.5 -5.5zM512 768q-26 0 -45 -19t-19 -45t19 -45t45 -19t45 19t19 45t-19 45t-45 19zM811 427h-598
q-5 0 -10 2.5t-8 7.5t-3 11q0 9 6.5 15t14.5 6h598q8 0 14.5 -6t6.5 -15t-6.5 -15t-14.5 -6zM512 85q-44 0 -75.5 31.5t-31.5 75.5q0 22 8.5 41.5t23 34t34 23t41.5 8.5t41.5 -8.5t34 -23t23 -34t8.5 -41.5q0 -44 -31.5 -75.5t-75.5 -31.5zM512 256q-26 0 -45 -19t-19 -45
t19 -45t45 -19t45 19t19 45t-19 45t-45 19z" />
    <glyph glyph-name="divide-square-line" unicode="&#xef61;" 
d="M811 43h-598q-44 0 -75 31t-31 75v598q0 44 31 75t75 31h598q21 0 41 -8.5t34 -22.5t22.5 -34t8.5 -41v-598q0 -44 -31 -75t-75 -31zM213 811q-17 0 -32 -8.5t-23.5 -23.5t-8.5 -32v-598q0 -26 19 -45t45 -19h598q26 0 45 19t19 45v598q0 17 -8.5 32t-23.5 23.5t-32 8.5
h-598zM683 427h-342q-5 0 -10 2.5t-8 7.5t-3 11q0 9 6.5 15t14.5 6h342q3 0 6.5 -1t6 -3t4.5 -4.5t3 -6t1 -6.5q0 -21 -21 -21zM512 256q-4 0 -8 2q-4 1 -7 4.5t-5 6.5q-1 4 -1 8.5t1 8.5q1 2 2 3.5t3 2.5q4 4 9.5 5.5t11 0t9.5 -5.5q3 -2 5 -6q1 -4 1 -8.5t-1 -8.5
q-1 -1 -1.5 -2.5t-1.5 -2.5l-2 -2q-3 -3 -7 -4q-4 -2 -8 -2zM512 597q-4 0 -8 2t-7 5q-2 2 -3.5 4t-2 5t-0.5 6q0 8 6 15q1 1 3 2l4 2q6 3 12.5 1.5t10.5 -5.5q6 -7 6 -15.5t-6 -15t-15 -6.5z" />
    <glyph glyph-name="dollar-sign-line" unicode="&#xef62;" 
d="M512 -43q-9 0 -15 6.5t-6 15.5v938q0 6 2.5 11t7.5 8t11 3q4 0 8 -2t7 -4.5t4.5 -6.5t1.5 -9v-938q0 -9 -6 -15.5t-15 -6.5zM619 128h-363q-9 0 -15 6.5t-6 15t6 15t15 6.5h363q53 0 90.5 37.5t37.5 90.5t-37.5 90.5t-90.5 37.5h-214q-27 0 -53.5 8.5t-47 24.5
t-36.5 36.5t-24.5 47t-8.5 53.5q0 47 22.5 86t62 62t85.5 23h320q5 0 9 -1.5t6.5 -4.5t4.5 -7t2 -8q0 -9 -6.5 -15.5t-15.5 -6.5h-320q-53 0 -90.5 -37.5t-37.5 -90.5q0 -34 17.5 -63.5t47 -47t63.5 -17.5h214q34 0 66 -13.5t54.5 -36t36 -54.5t13.5 -66q0 -71 -50 -121
t-120 -50z" />
    <glyph glyph-name="download-cloud-line" unicode="&#xef63;" 
d="M512 43q-4 0 -8 1.5t-7 4.5l-171 171q-6 6 -6 15t6.5 15t15 6t14.5 -6l156 -156l156 156q3 3 7 4.5t8 1.5t8 -1.5t7 -4.5q6 -6 6 -15t-6 -15l-171 -171q-3 -3 -7 -4.5t-8 -1.5zM512 43q-9 0 -15 6t-6 15v384q0 9 6 15t15 6q3 0 6.5 -1t6 -3t4.5 -4.5t3 -6t1 -6.5v-384
q0 -4 -1.5 -8t-4.5 -7t-7 -4.5t-8 -1.5zM891 167q-11 0 -18 9q-5 7 -3.5 16t9.5 14q65 45 78.5 123.5t-32.5 143.5q-27 38 -68.5 60t-88.5 22h-54q-5 0 -9 2t-7 5.5t-4 8.5q-22 84 -82 144.5t-142 84t-166 1.5q-62 -16 -112.5 -54t-83.5 -93q-67 -114 -34 -242
q19 -75 70 -133q6 -7 5.5 -15.5t-7 -14.5t-15.5 -5.5t-15 7.5q-58 65 -80 150q-24 95 2 188t95 161t164 92q93 24 184 0t158.5 -89t94.5 -156h38q57 0 108 -26.5t84 -72.5q56 -80 39.5 -175.5t-96.5 -151.5q-5 -4 -12 -4z" />
    <glyph glyph-name="download-line" unicode="&#xef64;" 
d="M811 43h-598q-44 0 -75 31t-31 75v171q0 9 6 15t15 6t15 -6t6 -15v-171q0 -26 19 -45t45 -19h598q26 0 45 19t19 45v171q0 9 6 15t15 6q6 0 11 -2.5t7.5 -7.5t2.5 -11v-171q0 -44 -31 -75t-75 -31zM512 299q-9 0 -15 6l-213 213q-7 7 -7 15.5t6.5 15t15.5 6.5t15 -7
l198 -198l198 198q7 7 15.5 7t15 -6.5t6.5 -15t-7 -15.5l-213 -213q-3 -3 -7 -4.5t-8 -1.5zM512 299q-6 0 -11 2.5t-7.5 7.5t-2.5 11v512q0 4 1.5 8t4.5 7t7 4.5t8 1.5t8 -1.5t7 -4.5t4.5 -7t1.5 -8v-512q0 -9 -6 -15t-15 -6z" />
    <glyph glyph-name="dribbble-line" unicode="&#xef65;" 
d="M512 0q-185 0 -316.5 131.5t-131.5 316.5t131.5 316.5t316.5 131.5t316.5 -131.5t131.5 -316.5t-131.5 -316.5t-316.5 -131.5zM512 853q-110 0 -203.5 -54t-147.5 -147.5t-54 -203.5q0 -82 32 -157t86.5 -129.5t129.5 -86.5t157 -32q110 0 203.5 54t147.5 147.5t54 203.5
q0 66 -20.5 128t-58 111.5t-87 87t-111.5 58t-128 20.5zM708 65q-17 0 -21 17q-47 195 -95 321q-10 -2 -19.5 -5t-18.5 -6q-165 -59 -307 -262q-5 -7 -14 -8.5t-16 3.5q-5 3 -7.5 8.5t-2 11t4.5 10.5q150 214 327 277q18 7 37 11q-10 24 -20 46t-21 44q-37 -13 -78.5 -22.5
t-83 -16t-88 -11.5t-92 -7.5t-97.5 -3.5q-8 -1 -14.5 5.5t-7 15.5t6 15t14.5 7q132 3 235.5 16.5t184.5 39.5q-57 107 -167 259q-5 7 -3.5 16t8.5 14q4 3 10 3.5t11 -1.5t8 -7q115 -158 174 -269q145 55 244 171q6 6 14.5 7t15.5 -5t7.5 -14.5t-5.5 -15.5
q-103 -121 -256 -182q22 -46 42 -94q36 6 74 8t77.5 -0.5t81 -9.5t82.5 -18q9 -2 13.5 -10t2 -16.5t-10 -13t-16.5 -1.5q-51 13 -101 20t-96.5 7t-90.5 -7q48 -126 94 -320q2 -5 1 -9t-3 -7.5t-5.5 -6t-7.5 -3.5q-1 0 -2.5 -0.5t-2.5 -0.5z" />
    <glyph glyph-name="droplet-line" unicode="&#xef66;" 
d="M512 0q-72 0 -138.5 27t-117.5 79q-26 25 -46 55t-33 62.5t-20 67.5t-7 71q0 73 27 139t79 118l241 241q6 7 15 7t15 -7l242 -241q34 -34 57.5 -75.5t36 -87t12.5 -94.5q0 -72 -27.5 -138.5t-78.5 -117.5q-26 -26 -55.5 -45.5t-62 -33t-68 -20.5t-71.5 -7zM512 815
l-226 -226q-94 -94 -94 -226.5t94 -226.5q45 -45 103.5 -69.5t122.5 -24.5q133 0 226.5 94t93.5 226q0 65 -24 123t-70 104z" />
    <glyph glyph-name="edit-2-line" unicode="&#xef67;" 
d="M85 0q-9 0 -15 6q-8 9 -5 21l64 235q1 5 5 9l576 576q27 27 64 37t73.5 0t63.5 -37q20 -20 31 -46t11 -54q0 -59 -42 -101l-576 -576l-9 -5l-235 -64q-3 -1 -6 -1zM168 245l-52 -193l193 52l572 572q14 14 21.5 32.5t7.5 38.5q0 41 -29 70q-19 19 -44.5 26t-51.5 0
t-45 -26z" />
    <glyph glyph-name="edit-3-line" unicode="&#xef68;" 
d="M896 85h-384q-6 0 -11 3t-7.5 8t-2.5 11q0 8 6 14.5t15 6.5h384q4 0 8 -1.5t7 -4.5t4.5 -7t1.5 -8q0 -9 -6 -15.5t-15 -6.5zM128 85q-9 0 -15 7q-9 8 -6 20l43 171q1 2 2.5 4.5t3.5 4.5l533 534q32 31 79 31t79 -31q33 -33 33 -79.5t-33 -78.5l-533 -534l-10 -5l-171 -43
q-2 -1 -5 -1zM190 266l-33 -130l131 33l529 529q13 13 18 31t0 35.5t-18 31.5q-20 19 -49 19t-49 -19z" />
    <glyph glyph-name="edit-line" unicode="&#xef69;" 
d="M768 0h-597q-44 0 -75.5 31.5t-31.5 75.5v597q0 29 14.5 53.5t39 39t53.5 14.5h298q9 0 15.5 -6.5t6.5 -15.5q0 -5 -3 -10t-8 -8t-11 -3h-298q-9 0 -17.5 -2.5t-15.5 -6.5t-12.5 -10t-10 -13t-6.5 -15t-2 -17v-597q0 -27 18.5 -45.5t45.5 -18.5h597q26 0 45 18.5t19 45.5
v298q0 9 6.5 15.5t15 6.5t15 -6.5t6.5 -15.5v-298q0 -44 -31.5 -75.5t-75.5 -31.5zM341 256q-2 0 -5 0.5t-5.5 2t-4.5 3.5q-2 3 -4 6.5t-2 7t1 7.5l42 170q1 3 2.5 5.5t3.5 4.5l405 405q32 32 79.5 32t78.5 -32q33 -32 33 -78.5t-33 -79.5l-405 -405l-10 -6l-171 -42
q-2 -1 -5 -1zM403 437l-32 -130l130 32l401 401q20 21 20 49.5t-20 48.5q-9 10 -22 15t-26.5 5t-26.5 -5t-23 -15z" />
    <glyph glyph-name="external-link-line" unicode="&#xef6a;" 
d="M683 43h-470q-44 0 -75 31t-31 75v470q0 44 31 75t75 31h256q9 0 15.5 -6t6.5 -15t-6.5 -15t-15.5 -6h-256q-26 0 -45 -19t-19 -45v-470q0 -17 8.5 -32t23.5 -23.5t32 -8.5h470q26 0 45 19t19 45v256q0 9 6 15.5t15 6.5t15 -6.5t6 -15.5v-256q0 -44 -31 -75t-75 -31z
M896 555q-4 0 -8 1.5t-7 4.5t-4.5 7t-1.5 8v235h-235q-4 0 -8 1.5t-7 4.5t-4.5 7t-1.5 8t1.5 8t4.5 7t7 4.5t8 1.5h256q4 0 8 -1.5t7 -4.5t4.5 -7t1.5 -8v-256q0 -4 -1.5 -8t-4.5 -7t-7 -4.5t-8 -1.5zM427 341q-9 0 -15 7q-2 1 -3.5 3.5t-2 4.5t-1 4.5t0 4.5t1 4.5t2 4.5
t3.5 4l469 469q6 6 15 6t15 -6t6 -15t-6 -15l-469 -469q-6 -7 -15 -7z" />
    <glyph glyph-name="eye-line" unicode="&#xef6b;" 
d="M512 85q-50 0 -98 12t-87 31t-77 46t-66.5 53.5t-55 58t-43.5 55t-32.5 48t-20.5 34t-8 15.5q-5 10 0 20q5 9 13 24t32.5 51.5t52 69.5t71 72.5t89 68t106.5 48t124 19.5q50 0 98 -12t87 -31t77 -46t66.5 -53.5t55 -58t43.5 -55t32.5 -48t20.5 -34t8 -15.5q5 -10 0 -20
q-4 -9 -12.5 -24t-33 -51.5t-52 -69.5t-71 -72.5t-89 -68t-106.5 -48t-124 -19.5zM67 448q9 -16 20.5 -35t36 -52t51 -62t65 -61.5t78.5 -56t91 -38.5t103 -15t103 15t91 38.5t78.5 56t65 61.5t51 62t36 52t20.5 35q-14 26 -33.5 55t-63 80t-90.5 89t-116.5 67t-141.5 29
q-197 0 -363 -201q-48 -59 -82 -119zM512 299q-40 0 -74.5 20t-54.5 54.5t-20 74.5q0 62 43.5 105.5t105.5 43.5t105.5 -43.5t43.5 -105.5q0 -40 -20 -74.5t-54.5 -54.5t-74.5 -20zM512 555q-44 0 -75.5 -31.5t-31.5 -75.5q0 -22 8.5 -41.5t23 -34t34 -23t41.5 -8.5
q44 0 75.5 31.5t31.5 75.5t-31.5 75.5t-75.5 31.5z" />
    <glyph glyph-name="eye-off-line" unicode="&#xef6c;" 
d="M512 85q-63 0 -123.5 19.5t-106.5 48t-89.5 68t-71 72.5t-52 69.5t-33 51.5t-13 24.5t0.5 19.5q83 154 222 260q7 6 15.5 4.5t13.5 -8.5q4 -4 4.5 -9.5t-1.5 -11t-7 -9.5q-63 -48 -114.5 -107.5t-89.5 -128.5q8 -14 17.5 -29.5t28.5 -43t41.5 -53t51 -54.5t62.5 -53
t71.5 -44.5t82 -31.5t90.5 -11q134 2 241 84q7 5 15.5 4t14 -8.5t4 -16t-8.5 -13.5q-118 -90 -266 -93zM889 291q-8 0 -14 5t-7 14t5 16q24 28 45 59t39 63q-7 12 -15 25.5t-24 36.5t-33.5 45t-42 48.5t-50.5 49t-58.5 44.5t-66 37t-74 24.5t-81.5 9.5q-47 -1 -85 -10
q-4 -1 -8 0t-7.5 3t-6 5.5t-3.5 7.5q-2 9 2.5 16.5t13.5 9.5q45 10 94 11q50 0 98 -12t87 -31t77 -46t66.5 -53.5t55 -58t43.5 -55t32.5 -48t20.5 -34t8 -15.5q2 -4 2.5 -7t0 -6.5t-2.5 -6.5q-10 -19 -21 -37t-22.5 -35.5t-24.5 -34.5t-26 -33q-7 -7 -17 -7zM509 296
q-14 0 -27.5 2.5t-26.5 7t-25 12.5t-23 18q-45 42 -47.5 103.5t40.5 107.5q1 2 3 3.5t4 3.5q4 4 9.5 5.5t11 -0.5t9.5 -6q6 -6 6 -15t-7 -15l-2.5 -2.5l-2.5 -2.5q-30 -33 -28.5 -77t33.5 -74t76.5 -28.5t74.5 33.5q6 7 15 7t15 -6t6.5 -15t-5.5 -15q-44 -47 -109 -47z
M981 -43q-1 0 -3 0.5t-3.5 1l-3 1t-3 1.5t-2.5 3l-938 938q-7 7 -7 15.5t6.5 15t15.5 6.5t15 -7l938 -938q7 -6 7 -15t-7 -15q-6 -6 -15 -7z" />
    <glyph glyph-name="facebook-line" unicode="&#xef6d;" 
d="M597 0h-170q-9 0 -15.5 6.5t-6.5 14.5v320h-106q-9 0 -15.5 6.5t-6.5 15.5v170q0 9 6.5 15.5t15.5 6.5h106v106q0 97 69 166t166 69h128q4 0 8 -1.5t7 -4.5t4.5 -7t1.5 -8v-171q0 -4 -1.5 -8t-4.5 -7t-7 -4.5t-8 -1.5h-128q-9 0 -15 -6.5t-6 -15.5v-106h149q10 -1 17 -9
q6 -8 4 -18l-43 -171q-4 -16 -21 -16h-106v-320q0 -8 -6.5 -14.5t-15.5 -6.5zM448 43h128v320q0 8 6.5 14.5t14.5 6.5h112l32 128h-144q-8 0 -14.5 6.5t-6.5 14.5v128q0 11 3 20.5t9 17.5t14 14t18 9t20 3h107v128h-107q-52 0 -96.5 -25.5t-70 -70t-25.5 -96.5v-128
q0 -8 -6.5 -14.5t-14.5 -6.5h-107v-128h107q8 0 14.5 -6.5t6.5 -14.5v-320z" />
    <glyph glyph-name="fast-forward-line" unicode="&#xef6e;" 
d="M555 128l-10 2q-5 3 -8.5 8t-3.5 11v598q0 13 12 19t23 -2l384 -299q2 -2 4 -5t3 -6t1 -6q0 -10 -8 -17l-384 -299q-3 -2 -6.5 -3t-6.5 -1zM576 703v-510l328 255zM85 128q-2 0 -4.5 0.5t-4.5 1.5q-12 6 -12 19v598q0 13 12 19t22 -2l384 -299q4 -3 6.5 -7.5t2.5 -9.5
q0 -10 -9 -17l-384 -299q-2 -2 -5.5 -3t-7.5 -1zM107 703v-510l328 255z" />
    <glyph glyph-name="feather-line" unicode="&#xef6f;" 
d="M576 128h-363q-8 0 -14.5 6.5t-6.5 14.5v363q0 9 6 15l288 288q40 39 90.5 60t105.5 21q115 0 197 -81q84 -84 81 -203q-4 -111 -81 -189l-288 -289q-6 -6 -15 -6zM235 171h332l281 282q69 68 69 165.5t-68.5 166.5t-166 69t-166.5 -69l-281 -282v-332zM85 0q-9 0 -15 6
q-3 3 -4.5 7t-1.5 8t1.5 8t4.5 7l598 598q6 6 15 6t15 -6t6 -15t-6 -15l-598 -598q-6 -6 -15 -6zM747 299h-363q-6 0 -11 2.5t-7.5 7.5t-2.5 11q0 9 6 15t15 6h363q4 0 8 -1.5t7 -4.5t4.5 -7t1.5 -8q0 -21 -21 -21z" />
    <glyph glyph-name="figma-line" unicode="&#xef70;" 
d="M512 555h-149q-28 0 -54 8.5t-47 24.5t-37 36.5t-24.5 47t-8.5 53.5q0 71 50 121t121 50h149q4 0 8 -1.5t7 -4.5t4.5 -7t1.5 -8v-299q0 -4 -1.5 -8t-4.5 -7t-7 -4.5t-8 -1.5zM363 853q-53 0 -90.5 -37.5t-37.5 -90.5t37.5 -90.5t90.5 -37.5h128v256h-128zM661 555h-149
q-9 0 -15 6t-6 15v299q0 4 1.5 8t4.5 7t7 4.5t8 1.5h149q47 0 86 -23t62 -62t23 -86q0 -70 -50 -120t-121 -50zM533 597h128q53 0 90.5 37.5t37.5 90.5t-37.5 90.5t-90.5 37.5h-128v-256zM661 256q-46 0 -85.5 23t-62 62t-22.5 85.5t22.5 86t62 62t86 22.5t85.5 -22.5
t62 -62t23 -85.5q0 -71 -50 -121t-121 -50zM661 555q-53 0 -90.5 -37.5t-37.5 -90.5t37.5 -90.5t90.5 -37.5q35 0 64.5 17t46.5 46.5t17 64.5q0 53 -37.5 90.5t-90.5 37.5zM362.5 -43q-70.5 0 -120.5 50t-50 121q0 46 23 85.5t62 62.5t86 23h149q4 0 8 -2t7 -4.5t4.5 -6.5
t1.5 -9v-149q0 -71 -50 -121t-120.5 -50zM363 256q-53 0 -90.5 -37.5t-37.5 -90.5t37.5 -90.5t90.5 -37.5q34 0 63.5 17t47 46.5t17.5 64.5v128h-128zM512 256h-149q-28 0 -54 8.5t-47 24.5t-37 37t-24.5 47t-8.5 53.5t8.5 54t24.5 47t37 36.5t47 24.5t54 8.5h149
q4 0 8 -1.5t7 -4.5t4.5 -7t1.5 -8v-299q0 -8 -6 -14.5t-15 -6.5zM363 555q-53 0 -90.5 -37.5t-37.5 -90.5t37.5 -90.5t90.5 -37.5h128v256h-128z" />
    <glyph glyph-name="file-line" unicode="&#xef71;" 
d="M768 0h-512q-22 0 -41.5 8.5t-34 23t-23 34t-8.5 41.5v682q0 44 31.5 75.5t75.5 31.5h299q9 0 15 -6l298 -299q7 -6 7 -15v-469q0 -44 -31.5 -75.5t-75.5 -31.5zM256 853q-26 0 -45 -18.5t-19 -45.5v-682q0 -27 19 -45.5t45 -18.5h512q26 0 45 18.5t19 45.5v460l-286 286
h-290zM853 555h-298q-5 0 -9 1.5t-6.5 4.5t-4.5 7t-2 8v299q0 4 2 8t4.5 7t6.5 4.5t8.5 1.5t8.5 -1.5t7 -4.5t4.5 -7t1.5 -8v-278h277q5 0 9 -1.5t6.5 -4.5t4.5 -7t2 -8q0 -9 -6.5 -15t-15.5 -6z" />
    <glyph glyph-name="file-minus-line" unicode="&#xef72;" 
d="M768 0h-512q-22 0 -41.5 8.5t-34 23t-23 34t-8.5 41.5v682q0 44 31.5 75.5t75.5 31.5h341q9 0 15 -6l256 -256q7 -7 7 -15v-512q0 -44 -31.5 -75.5t-75.5 -31.5zM256 853q-26 0 -45 -18.5t-19 -45.5v-682q0 -27 19 -45.5t45 -18.5h512q26 0 45 18.5t19 45.5v503l-244 243
h-332zM853 597h-256q-8 0 -14.5 6.5t-6.5 15.5v256q0 5 3 10t8 8t10 3q9 0 15.5 -6.5t6.5 -14.5v-235h234q9 0 15.5 -6.5t6.5 -14.5q0 -6 -3 -11t-8 -8t-11 -3zM640 299h-256q-6 0 -11 2.5t-7.5 7.5t-2.5 11q0 9 6 15t15 6h256q4 0 8 -1.5t7 -4.5t4.5 -7t1.5 -8q0 -9 -6 -15
t-15 -6z" />
    <glyph glyph-name="file-plus-line" unicode="&#xef73;" 
d="M768 0h-512q-22 0 -41.5 8.5t-34 23t-23 34t-8.5 41.5v682q0 44 31.5 75.5t75.5 31.5h341q9 0 15 -6l256 -256q7 -7 7 -15v-512q0 -44 -31.5 -75.5t-75.5 -31.5zM256 853q-26 0 -45 -18.5t-19 -45.5v-682q0 -27 19 -45.5t45 -18.5h512q26 0 45 18.5t19 45.5v503l-244 243
h-332zM853 597h-256q-8 0 -14.5 6.5t-6.5 15.5v256q0 5 3 10t8 8t10 3q9 0 15.5 -6.5t6.5 -14.5v-235h234q9 0 15.5 -6.5t6.5 -14.5q0 -6 -3 -11t-8 -8t-11 -3zM512 171q-6 0 -11 2.5t-7.5 7.5t-2.5 11v256q0 9 6 15t15 6q3 0 6.5 -1t6 -3t4.5 -4.5t3 -6t1 -6.5v-256
q0 -9 -6 -15t-15 -6zM640 299h-256q-6 0 -11 2.5t-7.5 7.5t-2.5 11q0 9 6 15t15 6h256q4 0 8 -1.5t7 -4.5t4.5 -7t1.5 -8q0 -9 -6 -15t-15 -6z" />
    <glyph glyph-name="file-text-line" unicode="&#xef74;" 
d="M768 0h-512q-22 0 -41.5 8.5t-34 23t-23 34t-8.5 41.5v682q0 44 31.5 75.5t75.5 31.5h341q9 0 15 -6l256 -256q7 -7 7 -15v-512q0 -44 -31.5 -75.5t-75.5 -31.5zM256 853q-26 0 -45 -18.5t-19 -45.5v-682q0 -27 19 -45.5t45 -18.5h512q26 0 45 18.5t19 45.5v503l-244 243
h-332zM853 597h-256q-8 0 -14.5 6.5t-6.5 15.5v256q0 5 3 10t8 8t10 3q9 0 15.5 -6.5t6.5 -14.5v-235h234q9 0 15.5 -6.5t6.5 -14.5q0 -6 -3 -11t-8 -8t-11 -3zM683 384h-342q-8 0 -14.5 6.5t-6.5 15t6.5 15t14.5 6.5h342q4 0 8 -2t7 -4.5t4.5 -6.5t1.5 -9q0 -21 -21 -21z
M683 213h-342q-5 0 -10 3t-8 8t-3 11q0 8 6.5 14.5t14.5 6.5h342q5 0 10 -3t8 -8t3 -10q0 -22 -21 -22zM427 555h-86q-8 0 -14.5 6t-6.5 15q0 4 1.5 8t4.5 7t7 4.5t8 1.5h86q8 0 14.5 -6t6.5 -15q0 -6 -3 -11t-8 -7.5t-10 -2.5z" />
    <glyph glyph-name="film-line" unicode="&#xef75;" 
d="M846 0h-668q-31 0 -57 15.5t-41.5 41.5t-15.5 57v668q0 47 33.5 80.5t80.5 33.5h668q47 0 80.5 -33.5t33.5 -80.5v-668q0 -47 -33.5 -80.5t-80.5 -33.5zM178 853q-19 0 -35.5 -9.5t-26 -26t-9.5 -35.5v-668q0 -19 9.5 -35.5t26 -26t35.5 -9.5h668q29 0 50 21t21 50v668
q0 29 -21 50t-50 21h-668zM299 0q-9 0 -15.5 6.5t-6.5 14.5v854q0 5 3 10t8 8t11 3q8 0 14.5 -6.5t6.5 -14.5v-854q0 -5 -3 -10t-8 -8t-10 -3zM725.5 0q-8.5 0 -15 6.5t-6.5 14.5v854q0 5 3 10t8 8t10 3q9 0 15.5 -6.5t6.5 -14.5v-854q0 -8 -6.5 -14.5t-15 -6.5zM939 427
h-854q-4 0 -8 1.5t-7 4.5t-4.5 7t-1.5 8q0 6 3 11t8 7.5t10 2.5h854q8 0 14.5 -6t6.5 -15t-6.5 -15t-14.5 -6zM299 640h-214q-8 0 -14.5 6.5t-6.5 15t6.5 15t14.5 6.5h214q8 0 14.5 -6.5t6.5 -15t-6.5 -15t-14.5 -6.5zM299 213h-214q-8 0 -14.5 6.5t-6.5 15t6.5 15t14.5 6.5
h214q8 0 14.5 -6.5t6.5 -15t-6.5 -15t-14.5 -6.5zM939 213h-214q-5 0 -10 3t-8 8t-3 11q0 8 6.5 14.5t14.5 6.5h214q5 0 10 -3t8 -8t3 -10q0 -9 -6.5 -15.5t-14.5 -6.5zM939 640h-214q-4 0 -8 1.5t-7 4.5t-4.5 7t-1.5 8q0 9 6.5 15.5t14.5 6.5h214q8 0 14.5 -6.5t6.5 -15
t-6.5 -15t-14.5 -6.5z" />
    <glyph glyph-name="filter-line" unicode="&#xef76;" 
d="M597 43q-5 0 -9 2l-171 85q-12 6 -12 19v272l-336 397q-4 5 -5 11t2 12q2 4 5 6.5t6.5 4t7.5 1.5h854q6 0 11 -3t8 -9q6 -12 -3 -23l-336 -397v-357q0 -12 -10 -18l-4 -2t-4 -1h-4zM448 163l128 -64v329q0 2 0.5 4t1 3.5t1.5 3.5t2 3l312 369h-762l312 -369q5 -6 5 -14
v-265z" />
    </font>
</defs>
</svg>
