<?xml version="1.0" standalone="no"?>
<!DOCTYPE svg PUBLIC "-//W3C//DTD SVG 1.1//EN" "http://www.w3.org/Graphics/SVG/1.1/DTD/svg11.dtd" >
<svg xmlns="http://www.w3.org/2000/svg" xmlns:xlink="http://www.w3.org/1999/xlink" version="1.1">
<metadata>
Created by FontForge 20201107 at Sat Jul 31 04:32:51 2021
 By Unknown
</metadata>
<defs>
<font id="jkiticon" horiz-adv-x="1024" >
  <font-face 
    font-family="jkiticon"
    font-weight="400"
    font-stretch="normal"
    units-per-em="1024"
    panose-1="2 0 5 3 0 0 0 0 0 0"
    ascent="960"
    descent="-64"
    bbox="-0.333333 -67 1024.29 960"
    underline-thickness="0"
    underline-position="0"
    unicode-range="U+EA2B-EB55"
  />
<missing-glyph 
 />
    <glyph glyph-name=".notdef" 
 />
    <glyph glyph-name="cloudversify" unicode="&#xea2b;" 
d="M649 736q-21 0 -40.5 -2.5t-36.5 -7.5q-22 -6 -41.5 -15.5t-35 -21.5t-28 -26t-22.5 -31.5t-18 -37t-14 -41.5q-43 -15 -72 -38q-9 -8 -22 -19q1 -4 1 -6v-58q0 -7 -4.5 -11.5t-11.5 -4.5h-64q-7 0 -11.5 4.5t-4.5 11.5v16h-16q-7 0 -11.5 -4.5t-4.5 -11.5v-64
q0 -6 4.5 -11t11.5 -5h59q4 0 9 3l2 -12q15 -77 78.5 -122.5t152.5 -40.5q21 -17 45.5 -29t51 -17.5t54 -5.5t53.5 6.5t50.5 20.5t44.5 34q80 -2 137 43.5t73 113.5q19 77 -21 148.5t-126 97.5q-19 49 -57 82.5t-79 47t-86 14.5zM304 704q-7 0 -11.5 -4.5t-4.5 -11.5v-32
q0 -7 4.5 -11.5t11.5 -4.5h32q7 0 11.5 4.5t4.5 11.5v32q0 7 -4.5 11.5t-11.5 4.5h-32zM16 640q-7 0 -11.5 -4.5t-4.5 -11.5v-32q0 -7 4.5 -11.5t11.5 -4.5h32q7 0 11.5 4.5t4.5 11.5v32q0 7 -4.5 11.5t-11.5 4.5h-32zM144 640q-7 0 -11.5 -4.5t-4.5 -11.5v-96q0 -4 2 -7.5
t6 -6t8 -2.5h96q7 0 11.5 5t4.5 11v96q0 7 -4.5 11.5t-11.5 4.5h-96zM666 640q15 0 31 -2q60 -8 106 -45.5t53 -89t-45 -107.5q40 18 60.5 55t18.5 68l17 -31q31 -55 16 -116q-7 -31 -26.5 -57t-47 -43t-60.5 -23q-29 -6 -60 0t-59 30t-35 64q-22 -92 93 -138
q-45 -14 -83.5 -13t-69 12t-51.5 31.5t-31.5 44t-8.5 50t17 50.5q-37 -23 -47 -67t-2 -80q-1 1 -11 7.5t-13 8.5t-13 9t-14.5 12t-12.5 13t-12 16l-9 18t-8 21t-4 24q-2 31 10 60.5t34 52.5t52 38q20 10 50 12.5t62.5 -3t63.5 -23.5t48 -46q-31 102 -170 114q18 18 35 30.5
t37 22.5t42.5 15t46.5 5zM48 480q-7 0 -11.5 -4.5t-4.5 -11.5v-32q0 -7 4.5 -11.5t11.5 -4.5h32q7 0 11.5 4.5t4.5 11.5v32q0 7 -4.5 11.5t-11.5 4.5h-32z" />
    <glyph glyph-name="cocktail-solid" unicode="&#xea2c;" 
d="M272 832q-73 0 -124.5 -51.5t-51.5 -124.5t51.5 -124.5t124.5 -51.5q37 0 73 17l167 -220v-181h-128v-64h320v64h-128v181l282 372l6 9v46h-424q-15 56 -62 92t-106 36zM272 768q33 0 60 -18t40 -46h-148v-46l6 -9l75 -99q-17 -6 -33 -6q-47 0 -79.5 32.5t-32.5 79.5
t32.5 79.5t79.5 32.5zM318 640h452l-48 -64h-290l48 -64h193l-129 -171z" />
    <glyph glyph-name="code-branch-solid" unicode="&#xea2d;" 
d="M352 832q-39 0 -67.5 -28.5t-28.5 -67.5q0 -31 18 -55.5t46 -34.5v-396q-28 -10 -46 -34.5t-18 -55.5q0 -39 28.5 -67.5t67.5 -28.5t67.5 28.5t28.5 67.5q0 30 -17.5 54t-44.5 35q6 49 44 75q32 21 121 42q101 23 143 53q64 45 73 131q29 10 47 34.5t18 55.5
q0 39 -28.5 67.5t-67.5 28.5t-67.5 -28.5t-28.5 -67.5q0 -30 17.5 -54t45.5 -35q-5 -52 -45 -80q-32 -23 -121 -43q-105 -24 -143 -50q-1 0 -10 -8v276q28 10 46 34.5t18 55.5q0 39 -28.5 67.5t-67.5 28.5zM352 768q14 0 23 -9t9 -23t-9 -23t-23 -9t-23 9t-9 23t9 23t23 9z
M736 672q14 0 23 -9t9 -23t-9 -23t-23 -9t-23 9t-9 23t9 23t23 9zM352 192q14 0 23 -9t9 -23t-9 -23t-23 -9t-23 9t-9 23t9 23t23 9z" />
    <glyph glyph-name="code-solid" unicode="&#xea2e;" 
d="M576 800l-192 -704h64l192 704h-64zM254 755l-216 -288l-14 -19l14 -19l216 -288l52 38l-202 269l202 269zM770 755l-52 -38l202 -269l-202 -269l52 -38l216 288l14 19l-14 19z" />
    <glyph glyph-name="codepen" unicode="&#xea2f;" 
d="M512 869l-18 -12l-398 -266v-286l14 -9l402 -269l18 12l398 266v286l-14 9l-384 257zM480 771v-174l-165 -111l-129 87zM544 771l294 -198l-129 -87l-165 111v174zM512 541l139 -93l-139 -93l-139 93zM160 514l98 -66l-98 -66v132zM864 514v-132l-98 66zM316 410
l164 -111v-174l-294 198zM708 410l130 -87l-294 -198v174z" />
    <glyph glyph-name="codiepie" unicode="&#xea30;" 
d="M513 864q-113 0 -208.5 -55.5t-151.5 -151.5t-56 -209t56 -209t151.5 -151.5t208.5 -55.5q129 0 231.5 71.5t150.5 186.5l-347 158l337 186q-52 104 -151.5 167t-220.5 63zM513 800q85 0 159 -37.5t124 -104.5l-115 -64q-31 37 -75 57.5t-94 20.5q-93 0 -158.5 -65.5
t-65.5 -158.5t65.5 -158.5t158.5 -65.5q54 0 100.5 24t77.5 65l117 -53q-48 -77 -126 -120.5t-168 -43.5q-95 0 -176 47t-128.5 128.5t-47.5 176.5t47.5 176.5t128.5 128.5t176 47zM768 544v-160h64v64h16q20 0 34 14t14 34t-14 34t-34 14h-80z" />
    <glyph glyph-name="coffee-solid" unicode="&#xea31;" 
d="M352 864v-128h64v128h-64zM480 832v-96h64v96h-64zM156 704l4 -35l58 -551q4 -36 31.5 -61t64.5 -25h300q37 0 64.5 25t31.5 61l15 138h75q39 0 67.5 28.5t28.5 67.5v96q0 39 -28.5 67.5t-67.5 28.5h-45l13 125l4 35h-616zM228 640h472l-54 -515q-1 -12 -10.5 -20.5
t-21.5 -8.5h-300q-12 0 -21.5 8.5t-10.5 20.5zM748 480h52q14 0 23 -9t9 -23v-96q0 -14 -9 -23t-23 -9h-69z" />
    <glyph glyph-name="cog-solid" unicode="&#xea32;" 
d="M422 864l-5 -26l-19 -95q-43 -17 -83 -49l-93 32l-25 8l-13 -23l-64 -110l-13 -23l19 -17l72 -63q-6 -37 -6 -50t6 -50l-72 -63l-19 -17l13 -23l64 -110l13 -23l25 8l93 32q40 -32 83 -49l19 -95l5 -26h180l5 26l19 95q43 17 83 49l93 -32l25 -8l13 23l64 110l13 23
l-19 17l-72 63q6 37 6 50t-6 50l72 63l19 17l-13 23l-64 110l-13 23l-25 -8l-93 -32q-40 32 -83 49l-19 95l-5 26h-180zM474 800h76l16 -83l4 -19l18 -6q55 -17 97 -56l14 -13l18 6l81 28l38 -65l-64 -57l-15 -12l5 -19q6 -27 6 -56t-6 -56l-4 -19l14 -12l64 -57l-38 -65
l-81 28l-18 6l-14 -13q-42 -39 -97 -56l-18 -6l-4 -19l-16 -83h-76l-16 83l-4 19l-18 6q-55 17 -97 56l-14 13l-18 -6l-81 -28l-38 65l64 57l15 12l-5 19q-6 27 -6 56t6 56l5 19l-15 12l-64 57l38 65l81 -28l18 -6l14 13q42 39 97 56l18 6l4 19zM512 608q-66 0 -113 -47
t-47 -113t47 -113t113 -47t113 47t47 113t-47 113t-113 47zM512 544q40 0 68 -28t28 -68t-28 -68t-68 -28t-68 28t-28 68t28 68t68 28z" />
    <glyph glyph-name="cogs-solid" unicode="&#xea33;" 
d="M480 832v-36q-35 -7 -59 -23l-25 25l-46 -45l26 -26q-17 -26 -23 -55h-33v-64h33q6 -29 23 -55l-26 -26l46 -45l25 25q24 -16 59 -23v-36h64v36q31 7 54 22l24 -24l45 45l-24 24q18 26 24 57h37v64h-37q-6 31 -24 57l24 24l-45 45l-24 -24q-23 15 -54 22v36h-64zM510 736
q40 0 68 -28t28 -68t-28 -68t-68 -28t-68 28t-28 68t28 68t68 28zM256 448v-35q-33 -6 -59 -24l-25 25l-46 -45l26 -26q-17 -26 -23 -55h-33v-64h33q6 -29 23 -55l-26 -26l46 -45l25 25q26 -18 59 -24v-35h64v36q31 7 54 22l24 -24l45 45l-24 24q18 26 24 56l38 1l-2 64
l-36 -1q-6 32 -24 58l24 24l-45 45l-24 -24q-23 15 -54 22v36h-64zM704 448v-36q-35 -7 -59 -23l-25 25l-46 -45l26 -26q-17 -26 -23 -55h-33v-64h33q6 -29 23 -55l-26 -26l46 -45l25 25q24 -16 59 -23v-36h64v36q27 6 53 23l25 -25l45 45l-24 24q17 25 24 56l38 1l-2 64
l-36 -1q-6 28 -25 57l25 25l-45 45l-25 -25q-24 15 -53 22v37h-64zM286 352q40 0 68 -28t28 -68t-28 -68t-68 -28t-68 28t-28 68t28 68t68 28zM734 352q40 0 68 -28t28 -68t-28 -68t-68 -28t-68 28t-28 68t28 68t68 28z" />
    <glyph glyph-name="coins-solid" unicode="&#xea34;" 
d="M672 832q-88 0 -150 -31q-74 -37 -74 -97v-128q0 -2 1 -7l1 -5q-46 12 -98 12q-88 0 -150 -31q-74 -37 -74 -97v-256q0 -60 74 -97q62 -31 150 -31t150 31q74 37 74 97v13q49 -13 96 -13q88 0 150 31q74 37 74 97v384q0 60 -74 97q-62 31 -150 31zM672 768q71 0 121 -25
q39 -20 39 -39t-39 -39q-50 -25 -121 -25t-121 25q-39 20 -39 39t39 39q50 25 121 25zM512 613q1 -1 4.5 -3t5.5 -3q62 -31 150 -31t150 31q2 1 5.5 3t4.5 3v-37q0 -19 -39 -39q-50 -25 -121 -25t-121 25q-39 20 -39 39v37zM352 512q71 0 121 -25q39 -20 39 -39t-39 -39
q-50 -25 -121 -25t-121 25q-39 20 -39 39t39 39q50 25 121 25zM832 485v-37q0 -19 -39 -39q-50 -25 -121 -25q-51 0 -96 15v49q0 2 -1 7l-1 5q46 -12 98 -12q88 0 150 31q2 1 5.5 3t4.5 3zM192 357q1 -1 4.5 -3t5.5 -3q62 -31 150 -31t150 31q2 1 5.5 3t4.5 3v-37
q0 -19 -39 -39q-50 -25 -121 -25t-121 25q-39 20 -39 39v37zM832 357v-37q0 -19 -39 -39q-50 -25 -121 -25q-54 0 -96 14v62q45 -12 96 -12q88 0 150 31q2 1 5.5 3t4.5 3zM192 229q1 -1 4.5 -3t5.5 -3q62 -31 150 -31t150 31q2 1 5.5 3t4.5 3v-37q0 -19 -39 -39
q-50 -25 -121 -25t-121 25q-39 20 -39 39v37z" />
    <glyph glyph-name="columns-solid" unicode="&#xea35;" 
d="M160 800v-704h704v704h-704zM224 736h256v-576h-256v576zM544 736h256v-576h-256v576z" />
    <glyph glyph-name="comment-alt-solid" unicode="&#xea36;" 
d="M96 800v-576h160v-162l203 162h469v576h-832zM160 736h704v-448h-427l-117 -93v93h-160v448z" />
    <glyph glyph-name="comment-alt" unicode="&#xea37;" 
d="M96 800v-576h160v-162l203 162h469v576h-832zM160 736h704v-448h-427l-117 -93v93h-160v448z" />
    <glyph glyph-name="comment-dollar-solid" unicode="&#xea38;" 
d="M96 768v-640h307l109 -109l109 109h307v640h-832zM160 704h704v-512h-269l-83 -83l-83 83h-269v512zM480 640v-38q-28 -10 -46 -35t-18 -55q0 -40 28.5 -68t67.5 -28q14 0 23 -9t9 -23q0 -9 -4 -16.5t-11.5 -11.5t-16.5 -4q-14 0 -23 9t-9 23h-64q0 -20 8.5 -38.5
t23 -31.5t32.5 -20v-38h64v38q28 10 46 35t18 55q0 40 -28.5 68t-67.5 28q-14 0 -23 9t-9 23q0 9 4 16.5t11.5 11.5t16.5 4q14 0 23 -9t9 -23h64q0 31 -18 55.5t-46 34.5v38h-64z" />
    <glyph glyph-name="comment-dots-solid" unicode="&#xea39;" 
d="M96 800v-576h160v-162l203 162h469v576h-832zM160 736h704v-448h-427l-117 -93v93h-160v448zM320 576q-27 0 -45.5 -18.5t-18.5 -45.5t18.5 -45.5t45.5 -18.5t45.5 18.5t18.5 45.5t-18.5 45.5t-45.5 18.5zM512 576q-27 0 -45.5 -18.5t-18.5 -45.5t18.5 -45.5t45.5 -18.5
t45.5 18.5t18.5 45.5t-18.5 45.5t-45.5 18.5zM704 576q-27 0 -45.5 -18.5t-18.5 -45.5t18.5 -45.5t45.5 -18.5t45.5 18.5t18.5 45.5t-18.5 45.5t-45.5 18.5z" />
    <glyph glyph-name="comment-dots" unicode="&#xea3a;" 
d="M96 800v-576h160v-162l203 162h469v576h-832zM160 736h704v-448h-427l-117 -93v93h-160v448zM320 576q-27 0 -45.5 -18.5t-18.5 -45.5t18.5 -45.5t45.5 -18.5t45.5 18.5t18.5 45.5t-18.5 45.5t-45.5 18.5zM512 576q-27 0 -45.5 -18.5t-18.5 -45.5t18.5 -45.5t45.5 -18.5
t45.5 18.5t18.5 45.5t-18.5 45.5t-45.5 18.5zM704 576q-27 0 -45.5 -18.5t-18.5 -45.5t18.5 -45.5t45.5 -18.5t45.5 18.5t18.5 45.5t-18.5 45.5t-45.5 18.5z" />
    <glyph glyph-name="comment-medical-solid" unicode="&#xea3b;" 
d="M96 768v-640h307l109 -109l109 109h307v640h-832zM160 704h704v-512h-269l-83 -83l-83 83h-269v512zM480 608v-128h-128v-64h128v-128h64v128h128v64h-128v128h-64z" />
    <glyph glyph-name="comment-slash-solid" unicode="&#xea3c;" 
d="M119 887l-46 -46l832 -832l46 46l-74 73h51v640h-691zM96 728v-600h307l109 -109l109 109h75l-64 64h-37l-83 -83l-83 83h-269v472zM301 704h563v-512h-51z" />
    <glyph glyph-name="comment-solid" unicode="&#xea3d;" 
d="M96 768v-640h307l109 -109l109 109h307v640h-832zM160 704h704v-512h-269l-83 -83l-83 83h-269v512zM288 608v-64h448v64h-448zM288 480v-64h448v64h-448zM288 352v-64h320v64h-320z" />
    <glyph glyph-name="comment" unicode="&#xea3e;" 
d="M96 768v-640h307l109 -109l109 109h307v640h-832zM160 704h704v-512h-269l-83 -83l-83 83h-269v512zM288 608v-64h448v64h-448zM288 480v-64h448v64h-448zM288 352v-64h320v64h-320z" />
    <glyph glyph-name="comments-dollar-solid" unicode="&#xea3f;" 
d="M64 864v-576h128v-163l52 42l151 121h309v576h-640zM128 800h512v-448h-267l-9 -7l-108 -86v93h-128v448zM352 736v-33q-27 -5 -45.5 -26t-18.5 -49q0 -40 36 -58l92 -46q0 -12 -12 -12h-40q-12 0 -12 12v20h-64v-20q0 -28 18.5 -49t45.5 -26v-33h64v33q27 5 45.5 26
t18.5 49q0 18 -9.5 33.5t-25.5 24.5l-93 46q0 12 12 12h40q12 0 12 -12v-20h64v20q0 28 -18.5 49t-45.5 26v33h-64zM768 672v-64h128v-384h-128v-93l-117 93h-240l-80 -64h298l203 -163v163h128v512h-192z" />
    <glyph glyph-name="comments-solid" unicode="&#xea40;" 
d="M64 800v-512h128v-163l52 42l151 121h309v512h-640zM128 736h512v-384h-267l-9 -7l-108 -86v93h-128v384zM768 672v-64h128v-384h-128v-93l-117 93h-240l-80 -64h298l203 -163v163h128v512h-192z" />
    <glyph glyph-name="comments" unicode="&#xea41;" 
d="M64 800v-512h128v-163l52 42l151 121h309v512h-640zM128 736h512v-384h-267l-9 -7l-108 -86v93h-128v384zM768 672v-64h128v-384h-128v-93l-117 93h-240l-80 -64h298l203 -163v163h128v512h-192z" />
    <glyph glyph-name="compact-disc-solid" unicode="&#xea42;" 
d="M512 832q-159 0 -271.5 -112.5t-112.5 -271.5t112.5 -271.5t271.5 -112.5t271.5 112.5t112.5 271.5t-112.5 271.5t-271.5 112.5zM512 768q133 0 226.5 -93.5t93.5 -226.5t-93.5 -226.5t-226.5 -93.5t-226.5 93.5t-93.5 226.5t93.5 226.5t226.5 93.5zM423 688
q-52 -19 -92 -59t-59 -92l60 -22q31 82 113 113zM512 544q-39 0 -67.5 -28.5t-28.5 -67.5t28.5 -67.5t67.5 -28.5t67.5 28.5t28.5 67.5t-28.5 67.5t-67.5 28.5zM512 480q14 0 23 -9t9 -23t-9 -23t-23 -9t-23 9t-9 23t9 23t23 9zM692 381q-31 -82 -113 -113l22 -60
q52 19 92 59t59 92z" />
    <glyph glyph-name="compass-solid" unicode="&#xea43;" 
d="M512 832q-159 0 -271.5 -112.5t-112.5 -271.5t112.5 -271.5t271.5 -112.5t271.5 112.5t112.5 271.5t-112.5 271.5t-271.5 112.5zM480 766v-30h64v30q114 -11 194.5 -91.5t91.5 -194.5h-30v-64h30q-11 -114 -91.5 -194.5t-194.5 -91.5v30h-64v-30q-114 11 -194.5 91.5
t-91.5 194.5h30v64h-30q11 114 91.5 194.5t194.5 91.5zM720 656l-267 -149l-149 -267l267 149zM512 496q20 0 34 -14t14 -34t-14 -34t-34 -14t-34 14t-14 34t14 34t34 14z" />
    <glyph glyph-name="compass" unicode="&#xea44;" 
d="M512 832q-159 0 -271.5 -112.5t-112.5 -271.5t112.5 -271.5t271.5 -112.5t271.5 112.5t112.5 271.5t-112.5 271.5t-271.5 112.5zM480 766v-30h64v30q114 -11 194.5 -91.5t91.5 -194.5h-30v-64h30q-11 -114 -91.5 -194.5t-194.5 -91.5v30h-64v-30q-114 11 -194.5 91.5
t-91.5 194.5h30v64h-30q11 114 91.5 194.5t194.5 91.5zM720 656l-267 -149l-149 -267l267 149zM512 496q20 0 34 -14t14 -34t-14 -34t-34 -14t-34 14t-14 34t14 34t34 14z" />
    <glyph glyph-name="compress-arrows-alt-solid" unicode="&#xea45;" 
d="M151 855l-46 -46l233 -233h-178v-64h288v288h-64v-178zM873 855l-233 -233v178h-64v-288h288v64h-178l233 233zM160 384v-64h178l-233 -233l46 -46l233 233v-178h64v288h-288zM576 384v-288h64v178l233 -233l46 46l-233 233h178v64h-288z" />
    <glyph glyph-name="compress-solid" unicode="&#xea46;" 
d="M352 832v-224h-224v-64h288v288h-64zM608 832v-288h288v64h-224v224h-64zM128 352v-64h224v-224h64v288h-288zM608 352v-288h64v224h224v64h-288z" />
    <glyph glyph-name="concierge-bell-solid" unicode="&#xea47;" 
d="M416 768v-64h192v64h-192zM512 672q-150 0 -260 -101.5t-122 -250.5h-66v-160h896v160h-66q-12 149 -122 250.5t-260 101.5zM512 608q125 0 215.5 -82.5t102.5 -205.5h-636q12 123 102.5 205.5t215.5 82.5zM128 256h768v-32h-768v32z" />
    <glyph glyph-name="confluence" unicode="&#xea48;" 
d="M720 800q-12 0 -19 -10l-0.5 -0.5t-0.5 -1.5q-37 -62 -63 -87t-61 -25q-8 0 -17 1.5t-18 3.5t-21 6t-22 7.5t-25.5 10.5t-27.5 12.5t-32 14.5t-34.5 16t-39 19t-41.5 20q-5 2 -10 2q-15 0 -21 -13l-1 -1l-72 -163q-4 -9 -0.5 -18t12.5 -13q110 -52 152 -72
q125 -61 227 -61q35 0 68 8t57.5 19t49 30.5t39.5 34.5t33.5 40t27 38t22.5 36q7 11 11 17q2 4 2.5 8.5t-0.5 8.5t-3.5 8t-6.5 6l-152 94q-6 4 -13 4zM734 721l82 -51q-22 -37 -42.5 -62t-48.5 -48.5t-63 -35.5t-77 -12q-17 0 -35.5 2t-38 6.5t-40 11t-42 15.5t-43.5 19
q-19 10 -41.5 20.5t-39.5 18.5t-36 17l39 89q1 0 3 -1.5t3.5 -2l3 -1t3 -1.5t3.5 -2q76 -36 110 -51t73.5 -27.5t68.5 -12.5q51 0 87 27.5t71 81.5zM439 448q-27 0 -52.5 -4.5t-46 -11.5t-41 -19t-35 -22t-31.5 -27.5t-26.5 -28.5t-23.5 -30.5t-19.5 -28t-17.5 -28
t-15 -23.5q-5 -8 -2.5 -17.5t10.5 -14.5l152 -93q6 -4 12 -4t11.5 3t8.5 8q37 63 63 88t61 25q9 0 18.5 -1.5t21.5 -5t22.5 -7t27 -10.5t29 -12t34.5 -15.5t37 -17.5t42.5 -20.5t46.5 -22.5q5 -2 10 -2q7 0 12.5 3.5t8.5 9.5q1 0 1 1l72 164q1 3 1.5 6t0 6t-1.5 5.5t-2.5 5
t-4 4.5t-5.5 3q-132 63 -152 73q-65 31 -121.5 46t-105.5 15zM439 384q87 0 200 -55q39 -19 116 -56l-39 -89l-18 9q-75 36 -109 51t-73.5 27.5t-68.5 12.5q-35 0 -64.5 -15t-49.5 -37t-43 -57l-83 51q23 36 43.5 61t48.5 49t63 36t77 12z" />
    <glyph glyph-name="connectdevelop" unicode="&#xea49;" 
d="M293 826l-9 -16l-200 -349l-9 -16l9 -16l200 -349l9 -16h438l9 16l200 349l9 16l-9 16l-200 349l-9 16h-438zM371 762h196l-146 -52zM663 762l-147 -150l-70 73zM329 759l60 -61l-61 -22v81zM698 753l84 -145l-129 -137l-114 118zM296 701v-36l-26 -9zM413 673l81 -84
l-119 -121l-47 50v124zM296 631v-79l-53 57l2 4zM226 580l70 -75v-119l-71 -73l-76 132zM796 576l-44 -207l-77 79zM516 566l115 -118l-119 -126l-115 122zM821 539l54 -94l-73 -127l-22 23zM328 471l25 -26l-25 -26v52zM653 425l92 -94l-11 -51h-183l-17 18zM375 421
l115 -123l-18 -18h-144v94zM296 341v-61h-52l-3 4zM772 303l13 -14l-5 -9h-13zM262 248h34v-59zM328 248h114l-112 -119l-2 4v115zM486 248h51l112 -120h-276zM581 248h146l-20 -96l-14 -24zM760 248h2l-3 -5z" />
    <glyph glyph-name="contao" unicode="&#xea4a;" 
d="M181 785q-22 0 -37.5 -15t-15.5 -37v-570q0 -22 15.5 -37t37.5 -15h119q-23 25 -42 61t-25.5 54.5t-8.5 28.5q-31 122 -48 226q-7 42 -7 89q0 133 98 215h-86zM709 785q23 -21 43 -52.5t28 -52.5l9 -21l-205 -43q-1 3 -3.5 7.5t-11.5 16t-19.5 20.5t-28 16.5t-37.5 7.5
q-36 0 -71.5 -24.5t-35.5 -70.5q0 -70 36 -225q20 -86 46 -124.5t75 -38.5q32 0 55.5 11.5t34 28.5t16.5 33.5t6 27.5l1 12l206 46v-50q0 -45 -18.5 -91t-34.5 -68.5t-32 -39.5h75q22 0 37.5 15t15.5 37v570q0 22 -15.5 37t-37.5 15h-134z" />
    <glyph glyph-name="cookie-bite-solid" unicode="&#xea4b;" 
d="M512 832q-159 0 -271.5 -112.5t-112.5 -271.5t112.5 -271.5t271.5 -112.5t271.5 112.5t112.5 271.5q0 22 -3 46q-20 -14 -45 -14t-45.5 14.5t-29.5 37.5q-32 -20 -69 -20q-53 0 -90.5 37.5t-37.5 90.5q0 34 18 64h-2q-33 0 -56.5 23.5t-23.5 56.5q0 26 16 47q-13 1 -16 1
zM752 832q-20 0 -34 -14t-14 -34t14 -34t34 -14t34 14t14 34t-14 34t-34 14zM450 762q9 -63 64 -99q-2 -11 -2 -23q0 -79 56.5 -135.5t135.5 -56.5q24 0 47 6q34 -31 79 -37q-7 -80 -51 -146t-114.5 -104.5t-152.5 -38.5q-132 0 -226 94t-94 226q0 76 33.5 143t92.5 112
t132 59zM704 672q-13 0 -22.5 -9.5t-9.5 -22.5t9.5 -22.5t22.5 -9.5t22.5 9.5t9.5 22.5t-9.5 22.5t-22.5 9.5zM448 640q-13 0 -22.5 -9.5t-9.5 -22.5t9.5 -22.5t22.5 -9.5t22.5 9.5t9.5 22.5t-9.5 22.5t-22.5 9.5zM864 640q-13 0 -22.5 -9.5t-9.5 -22.5t9.5 -22.5t22.5 -9.5
t22.5 9.5t9.5 22.5t-9.5 22.5t-22.5 9.5zM352 544q-27 0 -45.5 -18.5t-18.5 -45.5t18.5 -45.5t45.5 -18.5t45.5 18.5t18.5 45.5t-18.5 45.5t-45.5 18.5zM512 480q-13 0 -22.5 -9.5t-9.5 -22.5t9.5 -22.5t22.5 -9.5t22.5 9.5t9.5 22.5t-9.5 22.5t-22.5 9.5zM400 352
q-20 0 -34 -14t-14 -34t14 -34t34 -14t34 14t14 34t-14 34t-34 14zM624 320q-20 0 -34 -14t-14 -34t14 -34t34 -14t34 14t14 34t-14 34t-34 14z" />
    <glyph glyph-name="cookie-solid" unicode="&#xea4c;" 
d="M512 864q-172 0 -294 -122t-122 -294t122 -294t294 -122t294 122t122 294t-122 294t-294 122zM512 800q146 0 249 -103t103 -249t-103 -249t-249 -103t-249 103t-103 249t103 249t249 103zM448 672q-13 0 -22.5 -9.5t-9.5 -22.5t9.5 -22.5t22.5 -9.5t22.5 9.5t9.5 22.5
t-9.5 22.5t-22.5 9.5zM624 640q-20 0 -34 -14t-14 -34t14 -34t34 -14t34 14t14 34t-14 34t-34 14zM352 544q-27 0 -45.5 -18.5t-18.5 -45.5t18.5 -45.5t45.5 -18.5t45.5 18.5t18.5 45.5t-18.5 45.5t-45.5 18.5zM544 480q-13 0 -22.5 -9.5t-9.5 -22.5t9.5 -22.5t22.5 -9.5
t22.5 9.5t9.5 22.5t-9.5 22.5t-22.5 9.5zM704 448q-13 0 -22.5 -9.5t-9.5 -22.5t9.5 -22.5t22.5 -9.5t22.5 9.5t9.5 22.5t-9.5 22.5t-22.5 9.5zM400 352q-20 0 -34 -14t-14 -34t14 -34t34 -14t34 14t14 34t-14 34t-34 14zM624 320q-20 0 -34 -14t-14 -34t14 -34t34 -14
t34 14t14 34t-14 34t-34 14z" />
    <glyph glyph-name="copy-solid" unicode="&#xea4d;" 
d="M128 832v-640h224v64h-160v512h384v-32h64v96h-512zM384 704v-640h512v640h-512zM448 640h384v-512h-384v512z" />
    <glyph glyph-name="copy" unicode="&#xea4e;" 
d="M128 832v-640h224v64h-160v512h384v-32h64v96h-512zM384 704v-640h512v640h-512zM448 640h384v-512h-384v512z" />
    <glyph glyph-name="copyright-solid" unicode="&#xea4f;" 
d="M512 864q-172 0 -294 -122t-122 -294t122 -294t294 -122t294 122t122 294t-122 294t-294 122zM512 800q146 0 249 -103t103 -249t-103 -249t-249 -103t-249 103t-103 249t103 249t249 103zM509 640q-80 0 -136 -56t-56 -136t56 -136t136 -56q56 0 103 30.5t70 80.5
l-58 27q-16 -34 -46.5 -54t-68.5 -20q-55 0 -91.5 36.5t-36.5 91.5t36.5 91.5t91.5 36.5q38 0 68.5 -20t46.5 -54l58 27q-23 50 -70 80.5t-103 30.5z" />
    <glyph glyph-name="copyright" unicode="&#xea50;" 
d="M512 864q-172 0 -294 -122t-122 -294t122 -294t294 -122t294 122t122 294t-122 294t-294 122zM512 800q146 0 249 -103t103 -249t-103 -249t-249 -103t-249 103t-103 249t103 249t249 103zM509 640q-80 0 -136 -56t-56 -136t56 -136t136 -56q56 0 103 30.5t70 80.5
l-58 27q-16 -34 -46.5 -54t-68.5 -20q-55 0 -91.5 36.5t-36.5 91.5t36.5 91.5t91.5 36.5q38 0 68.5 -20t46.5 -54l58 27q-23 50 -70 80.5t-103 30.5z" />
    <glyph glyph-name="cotton-bureau" unicode="&#xea51;" 
d="M493 864q-105 0 -197 -57t-146 -153t-54 -206t54 -206t145 -153t195 -57h57q80 0 155.5 33.5t133 91.5t89.5 131h-67q-44 -80 -119.5 -132t-162.5 -59v57q0 67 50 101l1 1l9 7q26 -7 52 -7q41 0 75 15t57 41q22 24 33 55.5t11 64.5q0 71 -44 120q-19 22 -46.5 36
t-59.5 18q-11 44 -38 74q-50 56 -132 56t-132 -56q-14 -15 -23 -34t-15 -40q-65 -8 -106 -54q-44 -49 -44 -120t44 -120q50 -56 132 -56q26 0 52 7l9 -7l1 -1q50 -34 50 -101v-58h-19q-90 0 -166.5 47.5t-121.5 129t-45 175.5t44.5 175.5t121 129t164.5 47.5h57
q95 0 179.5 -53.5t127.5 -138.5h74q-49 112 -153 184t-225 72h-57zM544 672q54 0 84 -34q13 -14 20 -34q-56 -12 -92 -52q-2 -2 -4 -4.5l-4 -5t-4 -5.5q-2 3 -4 5.5l-4 5t-4 4.5q-36 40 -92 52q7 20 20 34q30 34 84 34zM370 541q6 -60 42 -101q36 -40 92 -52q-7 -20 -20 -34
q-30 -34 -84 -34t-84 34q-28 32 -28 78t28 78q21 23 54 31zM718 541q33 -8 54 -31q28 -32 28 -78q0 -11 -2 -21.5t-5.5 -20.5t-8.5 -19t-12 -17q-14 -16 -34.5 -25t-49.5 -9q-54 0 -84 34q-13 14 -20 34q56 12 92 52q36 41 42 101zM434 540q16 -4 28.5 -12t21.5 -18
q21 -23 26 -58q-31 8 -50 30q-21 23 -26 58zM654 540q-5 -35 -26 -58q-6 -7 -13.5 -12.5t-17 -10t-19.5 -7.5q5 35 26 58q9 10 21.5 18t28.5 12zM544 327q6 -9 12 -15q4 -5 8.5 -9t9.5 -8q-14 -14 -30 -40q-16 26 -30 40q11 8 18 17q2 2 4 5t4 5t4 5z" />
    <glyph glyph-name="couch-solid" unicode="&#xea52;" 
d="M192 736q-39 0 -67.5 -28.5t-28.5 -67.5v-70q-28 -10 -46 -34.5t-18 -55.5v-352h64v64h832v-64h64v352q0 31 -18 55.5t-46 34.5v70q0 39 -28.5 67.5t-67.5 28.5h-640zM192 672h640q13 0 22.5 -9.5t9.5 -22.5v-70q-28 -10 -46 -34.5t-18 -55.5v-64h-576v64q0 31 -18 55.5
t-46 34.5v70q0 13 9.5 22.5t22.5 9.5zM128 512q13 0 22.5 -9.5t9.5 -22.5v-128h704v128q0 13 9.5 22.5t22.5 9.5t22.5 -9.5t9.5 -22.5v-224h-832v224q0 13 9.5 22.5t22.5 9.5z" />
    <glyph glyph-name="cpanel" unicode="&#xea53;" 
d="M196 576q-18 0 -23 -17l-56 -207h39q18 0 23 17l41 152h32q11 0 19 -6.5t11 -16.5q3 -14 -6 -25t-24 -11h-16q-18 0 -23 -17l-10 -38h51q42 0 66.5 33.5t16.5 70.5q-7 29 -30 47t-52 18h-59zM983 576q-6 0 -10.5 -3.5t-6.5 -8.5l-57 -212q17 0 32 7t25.5 19.5t14.5 28.5
l43 156q1 5 -2 9t-9 4h-30zM363 512l-5 -20q-2 -7 0.5 -13.5t8 -10.5t13.5 -4h86q5 0 4 -8l-13 -47q-3 -8 -9 -8h-52q-7 0 -7 5.5t7 5.5h32q16 0 22 17l5 19h-73q-28 0 -41 -23.5t-2 -47.5t42 -24l87 -1q12 0 22 7.5t13 19.5l21 78q6 21 -7.5 38t-35.5 17h-118zM80 512
q-27 0 -48 -16.5t-29 -45.5q-10 -38 13.5 -68t62.5 -30h18l11 39q2 5 -1.5 9t-8.5 4h-17q-17 0 -24.5 14t0 28t24.5 14h28q17 0 22 16l10 36h-61zM633 511h-73l-40 -147q-1 -4 2 -8t8 -4h29q12 0 15 12l26 96h30q15 0 23.5 -11t4.5 -24l-16 -60q-1 -4 0 -6.5t3.5 -4.5
t5.5 -2h29q13 0 16 12l13 49q10 38 -13.5 68.5t-62.5 29.5zM798 512q-10 0 -19.5 -3.5t-17 -9.5t-13.5 -14t-8 -18l-17 -60q-5 -20 8 -37.5t35 -17.5h101q17 0 21 16l9 32h-111q-2 0 -4 1.5t-3 3.5t0 5l12 45q2 9 12 9h49q8 0 6 -8l-1 -4q-1 -4 -6 -4h-32q-18 0 -22 -17
l-5 -19h80q13 0 22.5 7t12.5 19l5 18q6 22 -7.5 39t-34.5 17h-72z" />
    <glyph glyph-name="creative-commons-by" unicode="&#xea54;" 
d="M512 864q-171 0 -293.5 -122.5t-122.5 -293.5t122.5 -293.5t293.5 -122.5t293.5 122.5t122.5 293.5t-122.5 293.5t-293.5 122.5zM512 800q145 0 248.5 -103.5t103.5 -248.5t-103.5 -248.5t-248.5 -103.5t-248.5 103.5t-103.5 248.5t103.5 248.5t248.5 103.5zM512 704
q-26 0 -45 -19t-19 -45t19 -45t45 -19t45 19t19 45t-19 45t-45 19zM512 544q-41 0 -68.5 -27.5t-27.5 -68.5v-96l32 -32v-128h128v128l32 32v96q0 41 -27.5 68.5t-68.5 27.5z" />
    <glyph glyph-name="creative-commons-nc-eu" unicode="&#xea55;" 
d="M512 864q-172 0 -294 -122t-122 -294t122 -294t294 -122t294 122t122 294t-122 294t-294 122zM512 800q146 0 249 -103t103 -249q0 -57 -19 -113l-301 134v43h-87q6 20 14 32q21 32 56 32q29 0 58 -34l49 42q-49 56 -107 56q-70 0 -109 -61q-11 -18 -20 -45l-193 86
q46 82 128 131t179 49zM179 561l173 -77v-20h33q0 -2 -0.5 -7.5t-0.5 -8.5t0.5 -8.5t0.5 -7.5h-33v-48h39q9 -39 27 -67q39 -61 109 -61q61 0 107 53l-49 42q-15 -18 -27 -24.5t-31 -6.5q-35 0 -56 32q-8 12 -14 32h87v15l275 -123q-46 -82 -128 -131t-179 -49
q-95 0 -176.5 47t-128.5 128.5t-47 176.5q0 57 19 113z" />
    <glyph glyph-name="creative-commons-nc-jp" unicode="&#xea56;" 
d="M512 864q-172 0 -294 -122t-122 -294t122 -294t294 -122t294 122t122 294t-122 294t-294 122zM512 800q146 0 249 -103t103 -249q0 -57 -19 -113l-283 126l110 147h-76l-84 -106l-79 106h-76l63 -84l-215 96q46 82 128 131t179 49zM179 561l237 -105v-72h64v-32h-64v-64
h64v-32h64v32h64v64h-64v32h33l242 -108q-46 -82 -128 -131t-179 -49q-95 0 -176.5 47t-128.5 128.5t-47 176.5q0 57 19 113z" />
    <glyph glyph-name="creative-commons-nc" unicode="&#xea57;" 
d="M512 864q-172 0 -294 -122t-122 -294t122 -294t294 -122t294 122t122 294t-122 294t-294 122zM512 800q146 0 249 -103t103 -249q0 -57 -19 -113l-269 119q-6 6 -11 9q-7 6 -16 9q-3 2 -6 3t-6 1.5t-6 1.5l-10 1l-36 16l-1 1.5t-2 2.5q-2 6 -2 13t2 13q3 5 7.5 9.5
t9.5 7.5q6 2 13 2t13 -2.5t10 -6.5t6.5 -10t2.5 -13h64q0 8 -1 15.5t-4 14.5q-14 44 -59 60v38h-64v-38q-3 -1 -6.5 -2.5t-6.5 -3.5q-7 -4 -12.5 -8t-11.5 -10q-10 -10 -17 -23q-3 -6 -5.5 -13t-3.5 -17l-212 95q46 82 128 131t179 49zM179 561l269 -119q12 -12 27 -18
q12 -5 28 -7l36 -16l1 -1q1 -2 2 -3q2 -6 2 -13q0 -5 -1.5 -9.5t-4 -8.5t-6 -7t-7.5 -5q-3 -1 -6.5 -1.5t-6.5 -0.5q-7 0 -13 2q-5 3 -10 7q-9 9 -9 23h-64q0 -8 1 -15.5t4 -14.5q2 -7 5 -13l8 -12t9.5 -11.5t11 -9.5t12 -7.5t13.5 -6.5v-38h64v38q16 6 29.5 17t22 26
t11.5 32v2l212 -95q-46 -82 -128 -131t-179 -49q-95 0 -176.5 47t-128.5 128.5t-47 176.5q0 57 19 113z" />
    <glyph glyph-name="creative-commons-nd" unicode="&#xea58;" 
d="M512 864q-172 0 -294 -122t-122 -294t122 -294t294 -122t294 122t122 294t-122 294t-294 122zM512 800q146 0 249 -103t103 -249t-103 -249t-249 -103t-249 103t-103 249t103 249t249 103zM352 544v-64h320v64h-320zM352 416v-64h320v64h-320z" />
    <glyph glyph-name="creative-commons-pd-alt" unicode="&#xea59;" 
d="M512 864q-172 0 -294 -122t-122 -294t122 -294t294 -122t294 122t122 294t-122 294t-294 122zM512 800q146 0 249 -103t103 -249t-103 -249t-249 -103t-249 103t-103 249t103 249t249 103zM288 576v-256h64v64h64q40 0 68 28t28 68t-28 68t-68 28h-128zM544 576v-256h112
q46 0 79 37.5t33 90.5t-33 90.5t-79 37.5h-112zM352 512h64q13 0 22.5 -9.5t9.5 -22.5t-9.5 -22.5t-22.5 -9.5h-64v64zM608 512h48q20 0 34 -19t14 -45t-14 -45t-34 -19h-48v128z" />
    <glyph glyph-name="creative-commons-pd" unicode="&#xea5a;" 
d="M512 864q-172 0 -294 -122t-122 -294t122 -294t294 -122t294 122t122 294t-122 294t-294 122zM512 800q146 0 249 -103t103 -249q0 -57 -19 -113l-397 177q0 26 19 45t45 19t45 -19t19 -45h64q0 53 -37.5 90.5t-90.5 37.5q-46 0 -81 -29t-44 -72l-182 81q46 82 128 131
t179 49zM179 561l205 -91v-86q0 -53 37.5 -90.5t90.5 -37.5q46 0 81 29t44 72l182 -81q-46 -82 -128 -131t-179 -49q-95 0 -176.5 47t-128.5 128.5t-47 176.5q0 57 19 113zM448 441l128 -57q0 -26 -19 -45t-45 -19t-45 19t-19 45v57z" />
    <glyph glyph-name="creative-commons-remix" unicode="&#xea5b;" 
d="M512 864q-172 0 -294 -122t-122 -294t122 -294t294 -122t294 122t122 294t-122 294t-294 122zM512 800q146 0 249 -103t103 -249t-103 -249t-249 -103t-249 103t-103 249t103 249t249 103zM464 672l-112 -42v-116l2 -1l-2 -1l-96 -36v-108l96 -48l96 45l208 -77l112 42
v116l-96 36v113zM631 463l76 -28l-51 -19l-76 28zM480 447l160 -59v-60l-160 59v60zM736 412v-60l-64 -24v60z" />
    <glyph glyph-name="creative-commons-sa" unicode="&#xea5c;" 
d="M512 864q-172 0 -294 -122t-122 -294t122 -294t294 -122t294 122t122 294t-122 294t-294 122zM512 800q146 0 249 -103t103 -249t-103 -249t-249 -103t-249 103t-103 249t103 249t249 103zM512 640q-53 0 -90.5 -37.5t-37.5 -90.5h-64l96 -96l96 96h-64q0 26 19 45t45 19
t45 -19t19 -45v-128q0 -26 -19 -45t-45 -19q-36 0 -55 32h-68q10 -42 44.5 -69t78.5 -27q53 0 90.5 37.5t37.5 90.5v128q0 53 -37.5 90.5t-90.5 37.5z" />
    <glyph glyph-name="creative-commons-sampling-plus" unicode="&#xea5d;" 
d="M512 864q-172 0 -294 -122t-122 -294t122 -294t294 -122t294 122t122 294t-122 294t-294 122zM512 800q146 0 249 -103t103 -249t-103 -249t-249 -103t-249 103t-103 249t103 249t249 103zM516 672q-2 0 -4.5 -0.5t-4.5 -2t-3.5 -3.5t-2.5 -4.5t-1 -4.5l-11 -117l-10 88
q-1 6 -5.5 10t-10.5 4q-2 0 -4 -0.5l-4 -1t-3.5 -2t-2.5 -3t-1.5 -3.5t-0.5 -4l-10 -104l-10 74q0 4 -2 7.5t-5.5 5.5t-8.5 2q-6 0 -10.5 -4t-4.5 -11l-15 -150l-6 34q-2 11 -13 13q-11 1 -17 -8l-22 -39h-67v-32h76q9 0 14 8l5 10l19 -106q2 -13 17 -13q13 1 15 15l8 54
l12 -113q1 -7 5.5 -11t10.5 -4t11 4.5t5 10.5l9 80l11 -112q0 -4 2 -7.5t5.5 -5.5t8.5 -2q6 0 10.5 4.5t4.5 10.5l11 113l7 -81q0 -4 2.5 -7.5t6 -5.5t7.5 -2q6 0 10.5 4t5.5 11l11 90l8 -90q1 -6 5.5 -10.5t11 -4.5t11 4t4.5 11l15 157l9 -70q2 -12 14 -13q12 -2 17 9
l27 62h80v32h-90q-11 0 -15 -10l-9 -19l-20 151q-1 3 -3 6.5t-5.5 5t-7.5 1.5t-7.5 -2t-6 -5t-2.5 -7l-9 -57l-9 86q0 6 -4.5 10.5t-10.5 4.5q-3 0 -5 -0.5t-4 -2t-3.5 -3.5t-2.5 -4t-2 -5l-10 -54l-10 113q0 6 -5 10.5t-11 4.5zM480 512h64v-32h32v-64h-32v-32h-64v32h-32
v64h32v32z" />
    <glyph glyph-name="creative-commons-sampling" unicode="&#xea5e;" 
d="M512 864q-172 0 -294 -122t-122 -294t122 -294t294 -122t294 122t122 294t-122 294t-294 122zM512 800q146 0 249 -103t103 -249t-103 -249t-249 -103t-249 103t-103 249t103 249t249 103zM516 672q-6 0 -10.5 -4.5t-5.5 -10.5l-11 -175l-10 146q0 4 -2.5 7.5t-6 5
t-7.5 1.5q-6 0 -11 -4t-5 -10l-10 -144l-10 114q0 4 -2 7.5t-5.5 5.5t-8.5 2q-6 0 -10.5 -4t-4.5 -11l-15 -150l-6 34q-2 11 -13 12q-11 2 -17 -7l-22 -39h-67v-32h76q9 0 13 8l6 10l19 -106q3 -13 16 -13q14 1 16 15l8 87l12 -146q1 -7 5.5 -11t10.5 -4q4 0 7.5 2t6 5.5
t2.5 7.5l9 124l11 -156q0 -6 4.5 -10.5t11 -4.5t11 4.5t5.5 10.5l10 158l7 -126q0 -6 4.5 -10.5t11 -4.5t11 4t5.5 11l11 123l8 -123q1 -6 5.5 -10.5t10.5 -4.5q4 0 7.5 2t6 5t2.5 7l15 158l9 -70q1 -5 5 -9t9.5 -4.5t10 2t6.5 7.5l27 62h80v32h-91q-10 0 -14 -10l-9 -19
l-20 151q-1 6 -5.5 9.5t-10.5 3.5q-3 0 -6 -1t-5 -3t-3.5 -4.5t-1.5 -5.5l-9 -97l-9 126q0 6 -4.5 10.5t-10.5 4.5q-7 0 -11.5 -4t-5.5 -11l-10 -112l-10 171q0 6 -5 10.5t-11 4.5z" />
    <glyph glyph-name="creative-commons-share" unicode="&#xea5f;" 
d="M512 864q-172 0 -294 -122t-122 -294t122 -294t294 -122t294 122t122 294t-122 294t-294 122zM512 800q146 0 249 -103t103 -249t-103 -249t-249 -103t-249 103t-103 249t103 249t249 103zM320 672v-320h128v-128h256v320h-128v128h-256zM384 608h128v-64h-64v-128h-64
v192zM512 480h128v-192h-128v192z" />
    <glyph glyph-name="creative-commons-zero" unicode="&#xea60;" 
d="M512 864q-172 0 -294 -122t-122 -294t122 -294t294 -122t294 122t122 294t-122 294t-294 122zM512 800q146 0 249 -103t103 -249t-103 -249t-249 -103t-249 103t-103 249t103 249t249 103zM512 640q-53 0 -90.5 -37.5t-37.5 -90.5v-128q0 -53 37.5 -90.5t90.5 -37.5
t90.5 37.5t37.5 90.5v128q0 53 -37.5 90.5t-90.5 37.5zM512 576q12 0 23 -5l-87 -183v124q0 26 19 45t45 19zM576 508v-124q0 -26 -19 -45t-45 -19q-12 0 -23 5z" />
    <glyph glyph-name="creative-commons" unicode="&#xea61;" 
d="M512 832q-159 0 -271.5 -112.5t-112.5 -271.5t112.5 -271.5t271.5 -112.5t271.5 112.5t112.5 271.5t-112.5 271.5t-271.5 112.5zM512 768q133 0 226.5 -93.5t93.5 -226.5t-93.5 -226.5t-226.5 -93.5t-226.5 93.5t-93.5 226.5t93.5 226.5t226.5 93.5zM384 576
q-39 0 -67.5 -28.5t-28.5 -67.5v-64q0 -39 28.5 -67.5t67.5 -28.5t67.5 28.5t28.5 67.5h-64q0 -14 -9 -23t-23 -9t-23 9t-9 23v64q0 14 9 23t23 9t23 -9t9 -23h64q0 39 -28.5 67.5t-67.5 28.5zM640 576q-39 0 -67.5 -28.5t-28.5 -67.5v-64q0 -39 28.5 -67.5t67.5 -28.5
t67.5 28.5t28.5 67.5h-64q0 -14 -9 -23t-23 -9t-23 9t-9 23v64q0 14 9 23t23 9t23 -9t9 -23h64q0 39 -28.5 67.5t-67.5 28.5z" />
    <glyph glyph-name="credit-card-solid" unicode="&#xea62;" 
d="M160 768q-39 0 -67.5 -28.5t-28.5 -67.5v-448q0 -39 28.5 -67.5t67.5 -28.5h704q39 0 67.5 28.5t28.5 67.5v448q0 39 -28.5 67.5t-67.5 28.5h-704zM160 704h704q14 0 23 -9t9 -23v-64h-736v-64h736v-320q0 -14 -9 -23t-23 -9h-704q-14 0 -23 9t-9 23v448q0 14 9 23t23 9z
" />
    <glyph glyph-name="credit-card" unicode="&#xea63;" 
d="M160 768q-39 0 -67.5 -28.5t-28.5 -67.5v-448q0 -39 28.5 -67.5t67.5 -28.5h704q39 0 67.5 28.5t28.5 67.5v448q0 39 -28.5 67.5t-67.5 28.5h-704zM160 704h704q14 0 23 -9t9 -23v-64h-736v-64h736v-320q0 -14 -9 -23t-23 -9h-704q-14 0 -23 9t-9 23v448q0 14 9 23t23 9z
" />
    <glyph glyph-name="critical-role" unicode="&#xea64;" 
d="M512 852q-9 -5 -170 -96.5t-177 -100.5q-5 -3 -5 -8v-400q0 -4 3 -5q64 -36 345 -198h5q1 0 29 16t61 35t76 43.5t79 45t64.5 36.5t36.5 20q5 3 5 10v395q0 8 -6 10q0 1 -170 98.5t-173 98.5h-3zM523 823q44 -25 99 -56.5t112 -64.5t99 -57q-2 -1 -12.5 -4.5t-25 -9
t-31.5 -12t-33.5 -12.5t-30 -11.5t-22 -8.5l-8.5 -3q-1 0 -1 -2q1 -2 2 -4.5t1.5 -4.5t3.5 -1q4 1 84.5 31.5t82.5 30.5v-364l-6.5 11t-16.5 28t-22 38.5t-24.5 43t-23.5 40.5t-19 33t-11 18q-1 3 -4 2q-9 -1 -11 -2q31 -53 62.5 -108t65.5 -114h-295q-3 0 -3 2l-0.5 21.5
l-0.5 21.5q0 2 -2 2q-19 -4 -38 -1q-2 1 -2 -2v-17q0 -2 -1 -2q-21 3 -27 8t-39 44q-1 2 -2 3.5t-2.5 3t-2.5 3t-2.5 3t-2.5 3.5q-2 2 0 3l3 3q8 10 11.5 15t6.5 14.5t3 19.5q-1 21 -20 32q-3 2 -6.5 3.5t-9 2.5t-9 1t-12 0.5t-13.5 0.5h-18h-20q-3 0 -4.5 -1.5t-1 -3.5
t2.5 -3q1 0 3.5 -0.5t3.5 -0.5q6 -1 7.5 -4.5t1.5 -16.5q0 -106 -2 -126q0 -3 -1.5 -4.5t-5 -1.5t-4.5 -1q-2 0 -3 -2q-1 -4 3 -5q1 -1 14 -1h25.5t13.5 1q4 1 3.5 4t-4.5 4h-2q-8 0 -10 1t-3 6q-1 10 -2 52q0 2 3 2q4 0 10 1q9 0 12 -0.5t5 -3.5q19 -27 34 -46
q15 -20 34 -20q9 -1 20 -1h9v-15q0 -3 -3 -3h-294q-3 1 -2 2q47 83 106 185q2 2 -1 2q-12 1 -14 -2l-25 -43.5t-50.5 -87.5t-26.5 -45v364q2 0 6.5 -1.5t10.5 -4t12 -4.5t10 -3.5l4 -1.5q4 -2 17 8l-49 19q109 62 307 174q-55 -95 -137 -235h15q1 0 8 11.5t18 30.5t24 41.5
t27 46.5t25.5 45t20.5 36l12 20q5 -8 26 -44.5t43.5 -75.5t41 -71.5t18.5 -33.5l3 -3t5 -1.5t11 -1.5l1 1zM510 716q-10 -1 -16.5 -8t-6.5 -18q0 -7 3.5 -12.5t10.5 -9.5q1 0 2 -1.5t1 -2.5q-1 -2 -1 -4.5v-5v-4v-7t-0.5 -11t-0.5 -15.5q0 -3 -3 -3h-13h-11t-8.5 0.5
t-6.5 0.5h-5h-4.5h-3t-2.5 0.5l-2 1t-3 0.5q-4 2 -5 -2.5t-2 -9.5t-1.5 -9.5t-1.5 -9.5q-1 -3 1 -4t4 2l1 2q4 10 12.5 11.5t50.5 2.5q2 -2 3 -2q-4 -76 -6 -192q0 -3 -3 -4q-16 -5 -26.5 -20.5t-5.5 -36.5q3 -14 11 -22.5t18 -11t15.5 -3t9.5 -0.5q31 1 42 20t9 38
q-3 21 -20 31q-6 4 -13 6q-2 1 -2 3l-3 96.5l-3 96.5q0 1 1 1q42 -2 50 -3.5t10 -7.5q1 -5 2 -8q2 -3 4 0q2 2 2 32l-1.5 3t-3.5 0q-4 -1 -8 -1q-26 -1 -55 -1q-1 0 -1.5 0.5t-0.5 1.5l-1 47q0 3 1 4.5t2 2.5q7 4 9.5 11t1.5 14.5t-7 12.5q-8 9 -20 8zM512 703q7 0 10 -6
t0 -12t-10 -6q-12 0 -12 12t12 12zM288 632q-11 -1 -22 -3q-33 -8 -50 -35.5t-13 -59.5q3 -29 19 -47.5t36.5 -24.5t41.5 -7t35 3t15 9l0.5 1.5t1 4.5t1 6.5t1.5 8.5t2 9v2q-1 4 -5 4q-3 -1 -4 -8t-9 -15t-26 -10q-41 -3 -63.5 22.5t-22.5 58.5q1 42 29.5 58t57.5 8t31 -26
q3 -12 6 -12q2 1 2.5 2t0.5 2q1 9 2 37q0 5 -6 6q-54 6 -61 6zM714 582q-1 0 -2 -1q-1 -2 -29 -66q-4 -9 -6 -14q-3 -6 -10 -6q-4 0 -2 -3q1 -2 3 -2h42q6 0 3 4q-2 2 -4 2q-4 1 -8.5 0.5t-8 0t-2.5 3.5q3 9 7 17q0 1 1 1t2 1h23q2 0 3 -3q4 -11 6 -16q2 -4 0 -7q-1 -1 1 -2
q3 0 6 -1h80q2 0 3.5 0.5t2.5 2t1 3t0.5 5t0.5 5.5q1 4 -2 5q-2 1 -3 -3l-1 -2q-1 -5 -5 -5.5t-20 0.5q-5 -1 -5 3q-1 3 -1 33.5v32.5q0 4 4 4q7 1 7 3t-5 2q-34 1 -34 0q-5 -5 0 -5h3q6 -1 6 -6v-66q0 -7 -7 -6q-7 0 -10 3q-1 2 -4 7.5t-6 12.5t-6.5 15t-6.5 16t-6 14.5
t-5 11t-3 5.5q-1 0 -1 1h-2zM634 581q-11 0 -21.5 -3t-18.5 -11t-11.5 -21t2 -27.5t20.5 -22.5q18 -10 52 -6q9 1 9 20q-2 6 -5 2l-1 -3t-3.5 -5.5t-6.5 -3.5q-6 -1 -14.5 -1t-17.5 6t-13 17q-8 21 3 38.5t40 9.5q10 -5 12 -15q0 -3 2 -3t3 3v6l1 9q0 4 -1 5.5t-4 2t-5 1
t-9 1.5t-13 1zM482 579h-30q-8 -3 -2 -5h3q5 -1 5 -11q-1 -58 -1 -64q0 -4 -4 -3q-9 -1 -15 4q-13 14 -28 32l10 10q7 8 6.5 16t-6 13.5t-12.5 6.5q-12 1 -48 1q-2 0 -4 -2q-1 -1 1 -2t5 -1q2 0 3 -1t1.5 -2.5t0.5 -4.5v-63q0 -7 -4 -7.5t-5 -2.5q1 -3 4 -3h31q4 0 4 3
q-2 2 -6 3q-4 0 -4.5 2t-1.5 13v12q0 2 2.5 2.5t6 0t4.5 -2.5q2 -3 5.5 -8t5 -7t4.5 -5.5t4.5 -5t3.5 -3t4.5 -2.5t5 -1.5t5.5 -0.5h25h24q6 0 4 4l-4 1q-7 0 -8 4q-1 7 0 68q0 4 1 5.5t5 1.5q7 5 -1 5zM540 579q-2 0 -2.5 -1.5t1.5 -3.5h3q5 -1 5 -7v-38q0 -25 -0.5 -29.5
t-4.5 -4.5q-5 0 -5 -2.5t5 -2.5h34q3 0 3 2.5t-3 2.5q-10 1 -10 6q-1 63 0 69q1 3 5 4h2q4 2 1 5h-4.5h-8h-9h-8.5h-4zM388 570q6 1 12.5 -2t7.5 -12v-8t-5 -9.5t-14 -4.5q-4 1 -4 5v14.5v14.5q0 1 1 1.5t2 0.5zM711 554l10 -26h-20q2 4 10 26zM376 436q8 0 14 -2
q17 -5 22 -24.5t-3 -36.5q-5 -12 -16 -13.5t-24 1.5q-5 1 -5 5v66q0 4 12 4zM719 411q-6 -1 -58 -1q-4 0 -5 -2q0 -2 2 -3l4 -1q5 0 6 -5q3 -12 0 -76q0 -3 -7 -4q-3 0 -3 -2.5t3 -2.5q2 -1 56 -1q6 1 7 4q1 6 2 15q0 3 -2 3.5t-3 -2.5q-1 -1 -1 -3q-1 -5 -4.5 -5.5
t-20.5 -0.5q-5 0 -5.5 4t-0.5 22v5q-1 4 0.5 5t9.5 0q6 0 10 -1q3 0 4 -1t1 -3.5t1 -3.5q2 -1 4 0q0 1 0.5 5.5t1 8.5l0.5 4q0 5 -5 3q-2 0 -25 -2q-2 0 -2 2v26q0 2 2 2h8q11 -1 14 -2t3 -6q0 -3 2.5 -3t2.5 3q1 1 1 3.5v4t0.5 4t0.5 4.5q0 3 -4 3zM616 410h-19.5h-16.5
t-3 -2q1 -2 2 -3q9 -2 9 -6q1 -6 1 -30.5t-1 -45.5q-1 -2 -2 -3t-3.5 -1h-2.5q-2 -1 -2 -3t2 -2l60 -1q3 0 4 0.5t3 5t2 14.5l-3 3l-2 -1q-1 -2 -2 -6.5t-6 -4.5t-21 1q-3 0 -4.5 1.5t-1.5 3.5v66q0 8 7 8q5 1 4.5 3.5t-4.5 2.5zM495 394q1 -4 -2 -62q0 -6 10 -10t20 -2.5
t10 8.5q-2 39 -1 62q7 -5 10.5 -14t4 -18t-1 -17t-4.5 -13q-6 -9 -16 -12t-20 1q-15 7 -21.5 23.5t-3 32.5t14.5 21zM538 246h287q-13 -8 -156.5 -89.5t-155.5 -88.5q-2 -2 -5 0l-42 24t-78.5 45t-86.5 49.5t-72.5 41.5t-30.5 18h289q3 -1 3 -3q-1 -61 -2 -76q0 -9 3 -17
q3 -6 5.5 -12.5t4.5 -12t5 -12.5t5 -12q1 -3 1.5 -2.5t1.5 2.5q21 49 22 51l2 12v7.5t-0.5 12.5t-0.5 15t-0.5 16t-0.5 14.5v10.5v4q0 2 2 2z" />
    <glyph glyph-name="crop-alt-solid" unicode="&#xea65;" 
d="M256 832v-128h-128v-64h128v-448h448v-128h64v128h128v64h-576v576h-64zM384 704v-64h320v-320h64v384h-384z" />
    <glyph glyph-name="crop-solid" unicode="&#xea66;" 
d="M256 832v-128h-128v-64h128v-448h448v-128h64v128h128v64h-530l338 338v-306h64v370l119 119l-46 46l-119 -119h-370v-64h306l-338 -338v530h-64z" />
    <glyph glyph-name="cross-solid" unicode="&#xea67;" 
d="M416 864v-192h-192v-192h192v-448h192v448h192v192h-192v192h-192zM480 800h64v-192h192v-64h-192v-448h-64v448h-192v64h192v192z" />
    <glyph glyph-name="crosshairs-solid" unicode="&#xea68;" 
d="M480 864v-66q-126 -11 -216.5 -101.5t-101.5 -216.5h-66v-64h66q11 -126 101.5 -216.5t216.5 -101.5v-66h64v66q126 11 216.5 101.5t101.5 216.5h66v64h-66q-11 126 -101.5 216.5t-216.5 101.5v66h-64zM480 735v-63h64v63q101 -11 172.5 -82.5t82.5 -172.5h-63v-64h63
q-11 -101 -82.5 -172.5t-172.5 -82.5v63h-64v-63q-101 11 -172.5 82.5t-82.5 172.5h63v64h-63q11 101 82.5 172.5t172.5 82.5z" />
    <glyph glyph-name="crow-solid" unicode="&#xea69;" 
d="M224 768q-53 0 -90.5 -37.5t-37.5 -90.5v-160q0 -97 64.5 -169.5t159.5 -84.5v-130h64v128h64v-128h64v128h204l99 -64h128l-591 384v96h128q0 38 -41.5 67t-86.5 29h-44q-37 32 -84 32zM224 704q8 0 18 -3q-18 -9 -18 -29q0 -13 9.5 -22.5t22.5 -9.5q6 0 12 2.5t10 6.5
t7 9q3 -10 3 -18v-131l29 -19l311 -202h-276q-79 0 -135.5 56.5t-56.5 135.5v160q0 26 19 45t45 19z" />
    <glyph glyph-name="crown-solid" unicode="&#xea6a;" 
d="M512 864q-39 0 -67.5 -28.5t-28.5 -67.5q0 -56 50 -84l-94 -188l-147 105q31 28 31 71q0 39 -28.5 67.5t-67.5 28.5t-67.5 -28.5t-28.5 -67.5q0 -32 19.5 -57t49.5 -34l59 -325v-160h640v160l59 325q30 9 49.5 34t19.5 57q0 39 -28.5 67.5t-67.5 28.5t-67.5 -28.5
t-28.5 -67.5q0 -43 31 -71l-147 -105l-94 188q50 28 50 84q0 39 -28.5 67.5t-67.5 28.5zM512 800q14 0 23 -9t9 -23t-9 -23t-23 -9t-23 9t-9 23t9 23t23 9zM160 704q14 0 23 -9t9 -23t-9 -23t-23 -9t-23 9t-9 23t9 23t23 9zM864 704q14 0 23 -9t9 -23t-9 -23t-23 -9t-23 9
t-9 23t9 23t23 9zM512 632l99 -198l48 -12l160 114l-45 -248h-524l-45 248l160 -114l48 12zM256 224h512v-64h-512v64z" />
    <glyph glyph-name="crutch-solid" unicode="&#xea6b;" 
d="M623 832q-6 0 -15 -1q-32 -5 -47 -35l-16 -31q-12 -26 0 -54l-34 -34q-68 -68 -92 -163l-23 -91l-40 -39l23 -23l-145 -146l-28 -4l-46 -46l69 -69l46 46l4 28l146 145l23 -23l39 40l91 23q95 24 163 92l34 34q28 -12 55 1l30 15q29 14 34.5 47t-17.5 56l-1 2l-212 211
q-17 17 -41 19zM619 768l213 -214l-32 -15l-197 198zM586 662l140 -140l-30 -29q-4 -4 -18 -16l-137 137q12 14 16 18zM505 559l118 -118q-33 -17 -61 -24l-47 -12l20 20l-46 46l-20 -20l12 47q7 28 24 61z" />
    <glyph glyph-name="css3-alt" unicode="&#xea6c;" 
d="M192 832l64 -672l256 -96l256 96l64 672h-640zM299 736h426l-9 -96l-182 -96h174l-16 -192l-9 -96l-171 -64l-172 64l-10 128h96l5 -65l81 -28l81 27l11 130h-280l-8 96l189 96h-197z" />
    <glyph glyph-name="css3" unicode="&#xea6d;" 
d="M263 800l-5 -26l-16 -92l-7 -38h452l-10 -58h-452l-5 -26l-16 -92l-7 -37h452l-23 -130l-167 -77l-131 72l7 39l7 37h-156l-4 -26l-22 -122l-5 -24l22 -11l250 -122l13 -6l13 5l293 123l16 6l4 18l98 549l7 38h-608zM316 736h478l-88 -495l-265 -109l-214 104l13 72h25
l-8 -46l20 -11l165 -91l14 -8l15 7l212 98l3 17l33 183l7 38h-452l4 27h453l4 27l22 122l7 37h-452z" />
    <glyph glyph-name="cube-solid" unicode="&#xea6e;" 
d="M512 819l-13 -6l-320 -144l-19 -8v-406l16 -9l336 -187l16 9l336 187v406l-19 8l-320 144zM512 749l246 -110l-246 -123l-246 123zM224 588l256 -128v-309l-256 142v295zM800 588v-295l-256 -142v309z" />
    <glyph glyph-name="cubes-solid" unicode="&#xea6f;" 
d="M512 832l-12 -5l-212 -85v-215l-173 -75l-19 -9v-258l16 -10l192 -107l15 -8l15 7l178 89l178 -89l15 -7l15 8l192 107l16 10v258l-19 9l-173 75v215l-212 85zM512 762l105 -41l-105 -41l-105 41zM352 674l128 -49v-156l-128 57v148zM672 674v-148l-128 -57v156zM320 470
l116 -51l-116 -57l-116 58zM704 470l116 -50l-116 -58l-116 57l36 16zM160 371l128 -64v-157l-128 72v149zM864 371v-149l-128 -72v157zM480 369v-157l-128 -64v159zM544 369l128 -62v-159l-128 64v157z" />
    <glyph glyph-name="cut-solid" unicode="&#xea70;" 
d="M629 822q-42 -5 -54 -46l-85 -298l-107 -31q-6 41 -37.5 69t-73.5 28q-46 0 -79 -33t-33 -79t33 -79t79 -33q64 0 97 57l100 28l-28 -100q-57 -33 -57 -97q0 -46 33 -79t79 -33t79 33t33 79q0 42 -28 73.5t-69 37.5l143 501q-13 4 -25 2zM884 590l-279 -79l-21 -73
l256 73q26 7 38.5 30.5t5.5 48.5zM272 480q20 0 34 -14t14 -34t-14 -34t-34 -14t-34 14t-14 34t14 34t34 14zM496 256q20 0 34 -14t14 -34t-14 -34t-34 -14t-34 14t-14 34t14 34t34 14z" />
    <glyph glyph-name="cuttlefish" unicode="&#xea71;" 
d="M544 864q-172 0 -294 -122t-122 -294t122 -294t294 -122q87 0 165.5 34t138.5 98l28 30l-34 23q-34 30 -62.5 64.5t-46 63t-25 43t-11.5 24.5q-30 -40 -71 -66t-82 -26q-35 0 -64.5 17t-46.5 46.5t-17 64.5q0 53 37.5 90.5t90.5 37.5q28 0 57 -13t53 -33.5t43 -45.5
q4 7 9 18t19.5 36.5t30.5 48t39 49t47 43.5l34 23l-28 30q-60 64 -138.5 98t-165.5 34zM544 800q66 0 126 -23t109 -67q-28 -25 -52.5 -56.5t-45.5 -64.5q-67 51 -137 51q-39 0 -74.5 -15t-61.5 -41t-41 -61.5t-15 -74.5q0 -79 56.5 -135.5t135.5 -56.5q70 0 137 51
q43 -66 99 -120q-100 -91 -236 -91q-95 0 -176.5 47t-128.5 128.5t-47 176.5t47 176.5t128.5 128.5t176.5 47z" />
    <glyph glyph-name="d-and-d-beyond" unicode="&#xea72;" 
d="M509 608q-10 0 -16.5 -3.5t-8.5 -9t-3 -9t-1 -5.5q1 -4 2 -6.5t2 -3.5l1 -1q-2 7 2 13q3 -8 11 -13q-1 6 0 12q-1 6 2 10t8 4q7 0 9 -7t-3 -14l4 -4t4.5 -4t3.5 -3q8 9 8 20q0 6 -3 11.5t-8.5 9t-13.5 3.5zM538 599q0 -12 14 -22q4 -3 4 -14q7 4 9 5q-4 -4 -5 -7
q7 8 21 5q-2 0 -4 -1t-4 -3q5 1 10 0v7h4.5h5.5t6 -0.5t7 -2.5t5.5 -4.5t4 -7t1.5 -10.5q0 -5 -1 -8.5t-2 -6t-3 -4.5t-3.5 -3t-4 -2t-4.5 -1.5t-4 -0.5h-3h-2.5h-1.5q6 -4 7 -11.5t-3 -11.5q17 0 28.5 6t16.5 15t6.5 16t1.5 12q0 3 -0.5 7t-3 12t-7.5 13.5t-14.5 10.5
t-23.5 6h-7q-30 0 -36.5 0.5t-14.5 5.5zM374 598q0 -11 14 -21q4 -4 4 -10v-56q0 -7 -4 -9l-5.5 -3.5l-5.5 -3.5h51q22 0 37 13q-1 8 1 17q-1 0 -4 -5q0 21 14 30q-5 1 -13 -2q2 2 5.5 5t6.5 5l3 2q-4 15 -16 23t-21.5 9.5t-9.5 0.5q-34 0 -41.5 0.5t-15.5 4.5zM501 584
q-6 -6 -1 -16q6 -3 7 -8q-2 3 -10.5 8t-10.5 10q-1 -6 2 -10h-10q8 -2 7 -7q-1 -1 -3.5 -2.5t-6 -3.5t-5.5 -4q9 2 11 -3v-8q6 7 15 9q-5 1 -6 1q6 8 18 6q-7 0 -12 -4q3 0 7 -2q-6 -2 -9 -9q9 7 13 -3q3 -6 -3 -8q1 -1 3 -0.5t3 0.5q-2 -3 -5 -4q9 0 12 6q-3 -1 -4 0v6
q-2 -3 -3 1q0 3 2 6q-2 1 -7 1q4 1 9.5 1t6.5 -1l-1 -5q5 1 8 -1t2 -6q8 4 6 15q0 -1 -1 -2.5t-3 -1.5q-1 2 -3 3q2 8 -9 18t-11 17q-3 -5 -1 -10l3.5 -3.5t4.5 -4t4 -4.5t3 -6q-2 4 -7.5 9t-10 10t-4.5 10zM427 569q26 0 26 -25q0 -6 -1.5 -11t-4.5 -7.5t-5.5 -4t-6.5 -2
t-6.5 -1t-6 0l-3.5 0.5v50h3.5h4.5zM571 563q-4 0 -7 -2.5t-5.5 -4t-3.5 -1.5l2 5q-5 -2 -9 -8t-6 -10q5 6 14 9.5t15 3.5q-10 -1 -19.5 -8t-14.5 -15q2 -1 9 -7q14 34 32 23q2 2 8.5 3.5t11.5 0.5q-9 9 -20 9q-3 0 -5.5 -1t-4 -1.5t-1.5 0.5q-1 1 0.5 2t3.5 2zM516 557
q5 -2 6 -7q-3 0 -4 2t-2 5zM479 548q-12 -8 -14 -21q2 3 3 3q1 1 2 -1l-1 -2q-8 -23 8 -37q-3 6 0 6q1 0 3 -4l2.5 -2.5t8.5 -5t12 -2.5q23 0 36 26q-1 1 -5 4q-1 1 -2 1.5t-2 2t-2 1.5q-9 -15 -20 -15q-12 0 -14.5 13t9.5 26q-6 2 -11 -4q0 5 3 10q-12 -5 -17 -12
q0 3 0.5 6.5t1 4t-0.5 2.5zM570 548q-6 0 -11 -5q0 -1 -1 -2.5t-2 -1.5v-23q6 -4 7 4l-2 7q1 0 4 -2t3 -3q4 1 7 1q5 0 9 -2v27q-4 -1 -4 -2l-2 -1l-1 1q-1 1 -3 1.5t-4 0.5zM516 544q-1 -4 -0.5 -5.5t3 -3.5t3 -3t0.5 -3t1.5 -4.5t4.5 -4.5q10 -9 12.5 -10.5t2 -7t0.5 -9.5
q0 -4 3 -6.5t6 -3.5q-7 6 0 13q0 -14 14.5 -16t18.5 7q-2 -1 -6 0t-7 3q9 -1 15 3.5t7 11.5q0 7 -6 11.5t-14 4.5q10 -2 6 -11q-2 -8 -13 -6q3 2 3.5 5.5t-1 7t-4.5 5.5q1 -3 -0.5 -5.5t-4 -3t-6.5 1.5q-9 8 -15 13q-2 2 -5.5 2t-3.5 1q-1 0 -2 3l-2 4q-1 0 -3.5 0.5
t-3.5 0.5q-3 3 -3 5zM571 519q1 -5 1 -8t-1 -5q8 1 8 6t-8 7zM567.5 447q-24.5 0 -44 -9t-29.5 -23t-15.5 -31t-1 -33.5t14.5 -30.5t29.5 -23t45.5 -9q25 0 45 9t30 23t14.5 30.5t-0.5 33.5t-15.5 31t-29.5 23t-43.5 9zM927 445q-15 0 -32 -0.5t-27 -1t-21 -1.5l12 -13v-124
l-12 -13q16 -1 38 -2t45 -1q48 0 71 21t23 57q0 23 -11.5 41t-33.5 27.5t-52 9.5zM5 442l13 -14v-47h-18l18 -23v-52l-13 -14h29.5h25.5h20t16.5 0.5t13 1t11 1t8 1.5t8 2.5t6.5 3.5q16 9 16 28v3.5v5t-0.5 5t-1.5 6t-3.5 6t-6 6t-8.5 5t-11 4.5q26 6 26 31q0 15 -11 25
t-23.5 12.5t-24.5 2.5h-90zM285 442h-118l12 -13v-123l-12 -14h130l23 34h-96v25h37l22 34h-59v23h84zM664 442l12 -14v-122l-12 -14h62l-11 13v76q3 -8 38.5 -43t39.5 -46h34v136l12 14h-63l11 -13v-68q-5 12 -38 43.5t-35 37.5h-50zM306 442l70 -105l1 -31l-13 -14h69
l-12 14v30l70 106h-66l9 -12l-33 -59l-34 59l11 12h-72zM62 414h7h17.5t12 -1.5t8.5 -4.5t2 -8v-5q0 -5 -3 -8.5t-9 -4.5t-11 -1.5t-13.5 0t-10.5 0.5v33zM567 411q28 0 40 -22t0.5 -44t-40.5 -22q-28 0 -39.5 22t0 44t39.5 22zM920 411q58 1 58 -43q0 -53 -75 -43v85
q9 1 17 1zM78 356h10.5t9.5 -1t8.5 -2.5t5.5 -4t2 -6.5l1 -7q0 -11 -9 -13.5t-32 -1.5h-12v36h8h8z" />
    <glyph glyph-name="d-and-d" unicode="&#xea73;" 
d="M413 800q-15 0 -30 -2q-6 -1 -11 -2.5t-9.5 -3.5t-8.5 -3.5t-7.5 -3.5t-6 -3.5t-6 -4t-4.5 -3.5t-4.5 -4t-4.5 -4q0 4 0.5 8.5t1.5 8t3 8.5q-47 -33 -59 -90q-5 12 -6 29q-19 -25 -17 -66q1 -48 30 -76q-9 36 9 75q15 -50 60 -71v3q-4 27 4 57v5q-4 16 -0.5 32t15.5 28
q15 16 37 16.5t37 -15.5q13 -14 15 -36q4 -32 -13 -61q-2 -2 0 -5q4 -4 6 -7t23 -23q13 -12 23 -21l3.5 -3.5l4.5 -4.5q17 21 28 49q21 49 12 91q-19 81 -97 99q-4 1 -8.5 2t-9.5 1.5t-10 0.5zM367 670q-4 -5 -6 -9q-5 -16 -6 -23q-3 -12 -2.5 -25.5t3.5 -25.5q1 -4 5 -7
q21 -14 31 -34q0 -1 0.5 -2.5l1 -3t1.5 -2.5q-12 13 -13 15q-6 5 -13.5 10t-14.5 9l-17.5 10t-19.5 12q-23 16 -33 37q-7 -29 7 -53q-23 6 -55 5q22 -14 31 -29q7 -13 -4 -21q-7 -5 -34 -19.5t-40 -26.5h4q21 3 33 2q24 -3 27 -23q1 -8 0 -18l-5 -20q42 36 87 49
q-28 5 -33 6q20 22 54.5 28t43.5 1q-38 -4 -65 -20q17 -4 34 -9q-33 -17 -45 -48q16 10 36 8q23 -2 33 -18t2 -37q-5 -11 -15 -18l1 -1q1 0 11 1t16 2q-6 -14 -22 -24q16 -2 38 10.5t24 24.5q-6 -2 -13.5 -0.5t-7.5 10.5q0 2 3 25l-1.5 -1.5l-2.5 -2.5q-7 -4 -11 1t-2 13
q2 5 8 26q-11 3 -32 4q7 4 29 7t51 0q14 -3 -1 -31q28 -2 32 -3q13 -3 19 -11.5t4.5 -15.5t-1.5 -11q19 8 30.5 33.5t7.5 47.5q-4 -8 -9.5 -13t-13.5 -7q1 3 0 6t-3 5.5t-4.5 4.5t-5.5 3q-2 1 -2 3q3 20 -7 41q-11 20 -36 43l-8 8q-22 20 -31 29.5t-17.5 22.5t-11.5 27
q-1 3 -1 5.5t-0.5 5.5t-0.5 5q-2 -3 -3 -4q-8 -19 -6 -42q1 -9 7 -15q24 -22 41 -37q7 -8 13 -14.5t11.5 -15t8.5 -17.5q-2 2 -5 7q-8 11 -35 37q-2 1 -11.5 10t-13 12.5t-10.5 10t-12 11.5q-24 25 -27 64zM743 557q-7 -2 -14 -4.5t-14 -7t-12 -8t-14 -10.5t-13 -11
q-16 -12 -17 -3v4q2 4 6 11l1 2l1.5 3t2 2.5t0.5 2.5q-58 -39 -80 -101l0.5 -0.5t1.5 -0.5l1 2q20 24 50 41q42 25 82 28q1 0 3 0.5t4 0.5t3.5 -0.5t3.5 -0.5h4q-3 -1 -8 -1q-36 -5 -71 -26q-58 -34 -104 -96q0 -1 -0.5 -1.5l-0.5 -0.5q9 -3 17.5 -9t17.5 -14t16 -12l1 4
q29 61 65 102q35 39 87 28q2 -1 23 -10q8 5 12 7q8 4 17 7t19 5q37 8 62 2l-1 1q-1 1 -1 2q-12 12 -26 21t-30 15q-28 12 -55 10q-18 -1 -40 -9q-5 -1 -11 -3q-5 -1 -7 2.5t1 7.5q3 5 20 16q2 1 3 2h-6zM445 517q23 -10 33 -34q-6 0 -11.5 2t-9.5 6t-7.5 11t-4.5 15z
M238 473q-57 -58 -78 -117q18 15 33 23q-6 -16 -9 -26.5t-6.5 -29t-2.5 -39.5t7 -44q10 -43 33 -72l14 -14q-3 17 -2 30q1 0 4 -4.5t4 -6.5q9 -11 19.5 -20t22 -16t24.5 -13q49 -22 108 -12q100 18 160 136q2 3 -1 5q-50 42 -59 49q-1 0 -3 -4q-24 -41 -61 -65
q-25 -16 -47 -16q-45 0 -68 38q-23 37 -12 86q2 7 4.5 14.5t5.5 14t6 12t7 11.5t7 9.5t7.5 8.5t6 7t6 6.5l4.5 4.5q-32 11 -65 -19q2 30 17 51q-52 -22 -90 -60q-1 16 8 61q0 7 -4 11zM440 449q-11 -23 10 -41q3 -2 9.5 -7t9.5 -8q10 -8 11 -21q1 -12 3 -19q3 -18 23 -35
q8 -6 21.5 -17.5t25 -21t22.5 -17.5q16 -13 18.5 -34t-0.5 -43q-1 -16 4.5 -30t16 -24.5t25.5 -15.5q1 -1 3 -1q1 -1 2 -1q-10 12 -12.5 27t1.5 27t12 18q1 -8 1 -9q10 -44 42.5 -65t75.5 -13q36 6 59 27l2 2l2 2t2 2.5t2 2.5q-37 -9 -70 15h2q47 -4 79 24q21 17 27.5 42
t-3.5 49q-5 13 -14 23.5t-20.5 18t-25.5 11.5q-4 1 -8.5 2l-9 2t-8.5 1h-7.5t-6.5 -1q18 -7 26 -16q5 -6 8 -13t3.5 -13.5t-1.5 -13.5t-6.5 -13t-10.5 -10q-12 -8 -25.5 -11t-28.5 -1h-2h-2l11 15q10 18 6.5 40.5t-18.5 36.5l-2.5 2.5t-2.5 2t-2.5 2t-2.5 1.5v-3
q5 -17 -6 -31t-28 -13q-14 0 -27 12q-78 64 -81 66q-13 11 -28 12q-3 0 -6 0.5t-7 0.5h-6q-12 1 -15 12q0 2 -3 14q-3 17 -19 19q-1 0 -19 2q-26 3 -31 28z" />
    <glyph glyph-name="dashcube" unicode="&#xea74;" 
d="M784 864l-10 -9l-119 -119h-303q-66 0 -113 -47t-47 -113v-320q0 -66 47 -113t113 -47h320q66 0 113 47t47 113v608h-48zM768 758v-502q0 -40 -28 -68t-68 -28h-320q-40 0 -68 28t-28 68v320q0 40 28 68t68 28h330zM416 576q-26 0 -45 -19t-19 -45v-192q0 -26 19 -45
t45 -19h333l-54 55l-23 23v178q0 26 -19 45t-45 19h-192zM416 512h192v-192h-192v192z" />
    <glyph glyph-name="database-solid" unicode="&#xea75;" 
d="M192 832v-768h640v768h-640zM256 768h512v-160h-512v160zM256 544h512v-192h-512v192zM256 288h512v-160h-512v160z" />
    <glyph glyph-name="deaf-solid" unicode="&#xea76;" 
d="M119 887l-46 -46l832 -832l46 46l-251 251q100 148 100 270q0 106 -75 181t-181 75q-74 0 -135.5 -38.5t-93.5 -102.5zM544 768q79 0 135.5 -56.5t56.5 -135.5q0 -99 -82 -224l-205 205q5 36 31.5 59.5t63.5 23.5q56 0 84 -49l55 32q-21 38 -58.5 59.5t-80.5 21.5
q-49 0 -88.5 -26t-58.5 -69l-33 33q21 56 70 91t110 35zM357 469l-5 -4v-17q0 -21 12 -37.5t23 -23t30 -14.5q31 -14 31 -21q0 -15 -20 -23.5t-47 -8.5v-64q47 0 79.5 17t44.5 47zM288 256v-32q0 -66 47 -113t113 -47q33 0 58.5 9t44.5 27.5t29 32t24 37.5q14 23 20 32
l-46 46q0 -1 -1 -2t-1 -2q-11 -16 -27 -42q-17 -28 -26.5 -40.5t-28.5 -23t-46 -10.5q-40 0 -68 28t-28 68v32h-64z" />
    <glyph glyph-name="delicious" unicode="&#xea77;" 
d="M320 800q-66 0 -113 -47t-47 -113v-384q0 -66 47 -113t113 -47h384q66 0 113 47t47 113v384q0 66 -47 113t-113 47h-384zM320 736h192v-288h288v-192q0 -40 -28 -68t-68 -28h-192v288h-288v192q0 40 28 68t68 28z" />
    <glyph glyph-name="democrat-solid" unicode="&#xea78;" 
d="M194 800q-5 0 -8 -4q-13 -18 -12 -49t21 -49q4 -4 15 -10q-8 -6 -9 -7l-97 -129q-15 -20 -4 -44l19 -37q12 -23 37 -23h40q17 0 30 12l49 45l77 -153h448v112q5 -4 9.5 -8t7.5 -7.5t8 -10t8 -11t10 -15.5t12 -19q5 -7 13.5 -8.5t15.5 3.5l35 23q4 3 6.5 8t2.5 10.5
t-4 10.5l-25 38q-14 21 -32 38.5t-39 31t-45 21t-48 7.5h-306l-111 109q23 23 27.5 55.5t-10.5 53.5q-3 5 -9 6t-11 -4l-56 -74l-57 75q-3 3 -8 3zM434 512q4 0 6 -3l12 -25l27 -4q4 -1 5 -4.5t-2 -5.5l-20 -20l5 -27q1 -4 -2 -6t-6 0l-25 12l-24 -12q-4 -2 -7 0t-2 6l5 27
l-20 20q-2 1 -2 3.5t1.5 4t3.5 2.5l28 4l12 25q1 3 5 3zM574.5 512q3.5 0 5.5 -3l12 -25l28 -4q3 -1 4 -4.5t-1 -5.5l-20 -20l5 -27q0 -4 -3 -6t-6 0l-25 12l-24 -12q-3 -2 -6 0t-3 6l5 27l-20 20q-5 5 1 9l3 1l27 4l12 25q2 3 5.5 3zM718 512q4 0 5 -3l13 -25l27 -4
q4 -1 5 -4.5t-2 -5.5l-20 -20l5 -27q1 -4 -2 -6t-7 0l-24 12l-25 -12q-3 -2 -6 0t-2 6l4 27l-19 20q-2 1 -2 3.5t1 4t4 2.5l27 4l12 25q2 3 6 3zM352 288v-171q0 -9 6 -15t15 -6h86q4 0 8 1.5t7 4.5t4.5 7t1.5 8v107h192v-107q0 -9 6 -15t15 -6h86q4 0 8 1.5t7 4.5t4.5 7
t1.5 8v171h-448z" />
    <glyph glyph-name="deploydog" unicode="&#xea79;" 
d="M192 768q-53 0 -90.5 -37.5t-37.5 -90.5v-384q0 -53 37.5 -90.5t90.5 -37.5h640q53 0 90.5 37.5t37.5 90.5v384q0 53 -37.5 90.5t-90.5 37.5h-640zM192 704h640q26 0 45 -19t19 -45v-384q0 -26 -19 -45t-45 -19h-640q-26 0 -45 19t-19 45v384q0 26 19 45t45 19zM384 640
v-146q-30 18 -64 18q-53 0 -90.5 -37.5t-37.5 -90.5t37.5 -90.5t90.5 -37.5q34 0 64 18v-18h96v384h-96zM704 640v-146q-30 18 -64 18q-53 0 -90.5 -37.5t-37.5 -90.5t37.5 -90.5t90.5 -37.5q34 0 64 18v-18h96v384h-96zM336 432q20 0 34 -14t14 -34t-14 -34t-34 -14t-34 14
t-14 34t14 34t34 14zM656 432q20 0 34 -14t14 -34t-14 -34t-34 -14t-34 14t-14 34t14 34t34 14z" />
    <glyph glyph-name="deskpro" unicode="&#xea7a;" 
d="M214 800q-5 0 -9 -1t-8.5 -7t-4.5 -17v-317q-1 -37 11 -67.5t31.5 -49t43 -31t42 -17.5t31.5 -5h136q-34 33 -39 80q-1 9 6.5 13.5t15 1.5t8.5 -13q0 -4 1 -10t7 -20t14 -24.5t25 -19t39 -8.5h10l48 82l8 14h106v237q0 21 -4 42t-16 47t-32 45t-55 32t-81 13h-130
q28 -30 28 -64q0 -9 -7.5 -13t-15 0t-7.5 13q0 19 -7.5 32.5t-18.5 19t-22.5 9.5t-19.5 3t-12 0h-122zM592 576q12 -1 22 -6.5t16.5 -15.5t9 -23t-2.5 -29l-93 43q9 16 21.5 24t26.5 7zM654 352l-35 -64h149q41 0 88 19.5t72 44.5h-274zM608 256l12 -12l17 -17t11.5 -12
t8.5 -10.5t2 -6.5v-7.5t-3 -17.5t-9 -23t-18 -23.5t-29 -20.5q-9 -4 -14 -6t-11 -3t-15 -1l-48 -64q49 0 63 2q53 7 92.5 40t52.5 66q4 9 6.5 18t6 36t3.5 62h-128z" />
    <glyph glyph-name="desktop-solid" unicode="&#xea7b;" 
d="M64 768v-576h416v-64h-160v-64h384v64h-160v64h416v576h-896zM128 704h768v-448h-768v448z" />
    <glyph glyph-name="dev" unicode="&#xea7c;" 
d="M64 736v-576h896v576h-896zM128 672h768v-448h-768v448zM192 608v-320h96q40 0 68 28t28 68v128q0 40 -28 68t-68 28h-96zM512 608q-26 0 -45 -19t-19 -45v-192q0 -26 19 -45t45 -19h64v64h-64v64h64v64h-64v64h64v64h-64zM630 608l67 -289q3 -13 14 -22t25 -9
q9 0 17.5 4t14 11t7.5 16l67 289h-66l-40 -174l-40 174h-66zM256 544h32q13 0 22.5 -9.5t9.5 -22.5v-128q0 -13 -9.5 -22.5t-22.5 -9.5h-32v192z" />
    <glyph glyph-name="deviantart" unicode="&#xea7d;" 
d="M588 832l-9 -10l-13 -12l-3 -4l-2 -4l-57 -108l-5 -3h-237v-240h115l-111 -212l-4 -7v-168h174l9 10l13 12l3 4l2 4l57 108l5 3h237v240h-115l111 212l4 7v168h-174zM615 768h83v-89l-126 -239l-9 -19l13 -16l11 -13l9 -11h102v-112h-193l-9 -6l-19 -12l-6 -5l-4 -7
l-58 -111h-83v89l125 239l10 18l-13 17l-11 13l-9 11h-102v112h193l8 6l19 12l7 5l4 7z" />
    <glyph glyph-name="dharmachakra-solid" unicode="&#xea7e;" 
d="M512 892q-13 0 -22.5 -9.5t-9.5 -22.5q0 -20 19 -29q-147 -5 -252 -106q3 7 3 12q0 13 -9.5 22.5t-22.5 9.5t-22.5 -9.5t-9.5 -22.5t9.5 -22.5t22.5 -9.5q5 0 12 3q-96 -104 -101 -247q-9 19 -29 19q-13 0 -22.5 -9.5t-9.5 -22.5t9.5 -22.5t22.5 -9.5q20 0 29 19
q5 -143 101 -247q-7 3 -12 3q-13 0 -22.5 -9.5t-9.5 -22.5t9.5 -22.5t22.5 -9.5t22.5 9.5t9.5 22.5q0 5 -3 12q105 -101 252 -106q-19 -9 -19 -29q0 -13 9.5 -22.5t22.5 -9.5t22.5 9.5t9.5 22.5q0 20 -19 29q147 5 252 106q-3 -7 -3 -12q0 -13 9.5 -22.5t22.5 -9.5t22.5 9.5
t9.5 22.5t-9.5 22.5t-22.5 9.5q-5 0 -12 -3q96 104 101 247q9 -19 29 -19q13 0 22.5 9.5t9.5 22.5t-9.5 22.5t-22.5 9.5q-20 0 -29 -19q-5 143 -101 247q7 -3 12 -3q13 0 22.5 9.5t9.5 22.5t-9.5 22.5t-22.5 9.5t-22.5 -9.5t-9.5 -22.5q0 -5 3 -12q-105 101 -252 106
q19 9 19 29q0 13 -9.5 22.5t-22.5 9.5zM480 766v-195q-17 -4 -33 -14l-139 138q74 61 172 71zM544 766q97 -10 172 -71l-139 -138q-16 10 -33 14v195zM263 649l139 -137q-8 -14 -13 -32h-195q9 95 69 169zM761 649q60 -74 69 -169h-195q-5 18 -13 32zM512 512
q27 0 45.5 -18.5t18.5 -45.5t-18.5 -45.5t-45.5 -18.5t-45.5 18.5t-18.5 45.5t18.5 45.5t45.5 18.5zM193 416h195q4 -15 14 -32l-139 -136q-61 76 -70 168zM636 416h195q-9 -92 -70 -168l-139 136q10 17 14 32zM447 339q16 -10 33 -14v-195q-96 9 -172 72zM577 339l139 -137
q-76 -63 -172 -72v195q17 4 33 14z" />
    <glyph glyph-name="dhl" unicode="&#xea7f;" 
d="M180 544l-32 -44h178q11 0 4 -10q-2 -2 -5 -6.5t-6.5 -9t-4.5 -7.5q-7 -8 7 -8h73q12 16 22 29q5 10 4 22.5t-15 23t-36 10.5h-189zM488 544l-63 -85h229l63 85h-94l-36 -49h-42l36 49h-93zM748 544l-63 -85h100l63 85h-100zM200 488l-66 -89h160q56 0 92 49h-109
q-14 0 -8 8q15 20 17 23q7 9 -5 9h-81zM0 448v-11h145l7 11h-152zM416 448l-35 -49h94l35 49h-94zM552 448l-35 -49h94l35 49h-94zM677 448l-10 -14q-5 -9 -4.5 -16.5t11.5 -13t30 -5.5h151l35 49h-213zM908 448l-8 -11h124v11h-116zM0 428v-10h131l7 10h-138zM894 428
l-8 -10h138v10h-130zM0 409v-10h117l7 10h-124zM880 409l-8 -10h152v10h-144z" />
    <glyph glyph-name="diagnoses-solid" unicode="&#xea80;" 
d="M512 800q-53 0 -90.5 -37.5t-37.5 -90.5t37.5 -90.5t90.5 -37.5t90.5 37.5t37.5 90.5t-37.5 90.5t-90.5 37.5zM468 544q-43 0 -80.5 -21.5t-58.5 -59.5q35 -4 56 -32q12 23 34.5 36t48.5 13h88q21 0 40 -8q10 34 43 49q-19 11 -40 17t-43 6h-88zM512 736q27 0 45.5 -18.5
t18.5 -45.5t-18.5 -45.5t-45.5 -18.5t-45.5 18.5t-18.5 45.5t18.5 45.5t45.5 18.5zM672 480q-13 0 -22.5 -9.5t-9.5 -22.5t9.5 -22.5t22.5 -9.5t22.5 9.5t9.5 22.5t-9.5 22.5t-22.5 9.5zM320 416q-13 0 -22.5 -9.5t-9.5 -22.5t9.5 -22.5t22.5 -9.5t22.5 9.5t9.5 22.5
t-9.5 22.5t-22.5 9.5zM727 390q-23 -22 -55 -22h-5l40 -93l6 -15l17 -3l160 -32l12 62l-143 29zM480 384q-13 0 -22.5 -9.5t-9.5 -22.5t9.5 -22.5t22.5 -9.5t22.5 9.5t9.5 22.5t-9.5 22.5t-22.5 9.5zM268 323l-3 -7l-143 -29l12 -62l160 32l17 3l6 15l13 30q-6 -1 -10 -1
q-30 0 -52 19zM576 288q-13 0 -22.5 -9.5t-9.5 -22.5t9.5 -22.5t22.5 -9.5t22.5 9.5t9.5 22.5t-9.5 22.5t-22.5 9.5zM64 160v-64h896v64h-896z" />
    <glyph glyph-name="diaspora" unicode="&#xea81;" 
d="M384 800v-197l-180 61l-71 -213l181 -60l-119 -161l180 -133l117 158l112 -162l184 126l-115 169l185 59l-69 213l-149 -58l-32 198h-224zM448 736h96v-222l204 66l30 -92l-206 -66l127 -186l-79 -54l-125 183l-133 -179l-77 58l133 179l-204 69l30 91l204 -71v224z" />
    <glyph glyph-name="dice-d6-solid" unicode="&#xea82;" 
d="M512 866l-384 -140v-489l17 -9l367 -200l15 8l369 201v489l-21 8zM512 798l268 -97l-268 -122l-268 122zM512 736q-27 0 -45.5 -9.5t-18.5 -22.5t18.5 -22.5t45.5 -9.5t45.5 9.5t18.5 22.5t-18.5 22.5t-45.5 9.5zM192 655l288 -131v-406l-288 157v380zM832 655v-380
l-288 -157v406zM405 512q-9 0 -15 -8t-6 -20q0 -37 28 -53q4 -2 15 -2q9 0 16 7q5 10 5 21q0 35 -31 53q-4 2 -12 2zM641 480q-3 0 -8 -3q-15 -6 -25.5 -24t-10.5 -37q0 -17 5 -22q9 -9 20 -9t17 3q14 8 23.5 25t9.5 34q0 33 -25 33h-6zM324 439q-9 0 -15 -8t-6 -20
q0 -36 28 -52q6 -3 14 -3q10 0 17 7q5 10 5 22q0 34 -31 52q-4 2 -12 2zM753 402q-6 -1 -8 -2q-15 -6 -25.5 -24.5t-10.5 -37.5q0 -16 6 -22q8 -8 19 -8q13 0 17 2q14 8 23.5 25t9.5 34q0 33 -25 33h-6zM245 371q-9 0 -15 -8t-6 -20q0 -37 28 -53q4 -2 15 -2q9 0 16 7
q5 10 5 21q0 35 -31 53q-4 2 -12 2z" />
    <glyph glyph-name="dice-d20-solid" unicode="&#xea83;" 
d="M512 841l-20 -16l-264 -205l-8 -7l-3 -10l-88 -323l-7 -25l390 -195l390 195l-7 25l-88 323l-3 10l-8 7l-264 205zM480 734v-94h-121zM544 734l121 -94h-121v94zM290 576h158l-115 -153zM576 576h158l-43 -153zM512 554l128 -170h-256zM250 480l32 -112l-72 -36zM774 480
l40 -148l-72 36zM384 320h256l-128 -170zM310 311l94 -125l-172 86zM714 311l78 -39l-172 -86z" />
    <glyph glyph-name="dice-five-solid" unicode="&#xea84;" 
d="M160 800v-704h704v704h-704zM224 736h576v-576h-576v576zM352 672q-27 0 -45.5 -18.5t-18.5 -45.5t18.5 -45.5t45.5 -18.5t45.5 18.5t18.5 45.5t-18.5 45.5t-45.5 18.5zM672 672q-27 0 -45.5 -18.5t-18.5 -45.5t18.5 -45.5t45.5 -18.5t45.5 18.5t18.5 45.5t-18.5 45.5
t-45.5 18.5zM512 512q-27 0 -45.5 -18.5t-18.5 -45.5t18.5 -45.5t45.5 -18.5t45.5 18.5t18.5 45.5t-18.5 45.5t-45.5 18.5zM352 352q-27 0 -45.5 -18.5t-18.5 -45.5t18.5 -45.5t45.5 -18.5t45.5 18.5t18.5 45.5t-18.5 45.5t-45.5 18.5zM672 352q-27 0 -45.5 -18.5
t-18.5 -45.5t18.5 -45.5t45.5 -18.5t45.5 18.5t18.5 45.5t-18.5 45.5t-45.5 18.5z" />
    <glyph glyph-name="dice-four-solid" unicode="&#xea85;" 
d="M160 800v-704h704v704h-704zM224 736h576v-576h-576v576zM352 672q-27 0 -45.5 -18.5t-18.5 -45.5t18.5 -45.5t45.5 -18.5t45.5 18.5t18.5 45.5t-18.5 45.5t-45.5 18.5zM672 672q-27 0 -45.5 -18.5t-18.5 -45.5t18.5 -45.5t45.5 -18.5t45.5 18.5t18.5 45.5t-18.5 45.5
t-45.5 18.5zM352 352q-27 0 -45.5 -18.5t-18.5 -45.5t18.5 -45.5t45.5 -18.5t45.5 18.5t18.5 45.5t-18.5 45.5t-45.5 18.5zM672 352q-27 0 -45.5 -18.5t-18.5 -45.5t18.5 -45.5t45.5 -18.5t45.5 18.5t18.5 45.5t-18.5 45.5t-45.5 18.5z" />
    <glyph glyph-name="dice-one-solid" unicode="&#xea86;" 
d="M160 800v-704h704v704h-704zM224 736h576v-576h-576v576zM512 512q-27 0 -45.5 -18.5t-18.5 -45.5t18.5 -45.5t45.5 -18.5t45.5 18.5t18.5 45.5t-18.5 45.5t-45.5 18.5z" />
    <glyph glyph-name="dice-six-solid" unicode="&#xea87;" 
d="M160 800v-704h704v704h-704zM224 736h576v-576h-576v576zM352 704q-27 0 -45.5 -18.5t-18.5 -45.5t18.5 -45.5t45.5 -18.5t45.5 18.5t18.5 45.5t-18.5 45.5t-45.5 18.5zM672 704q-27 0 -45.5 -18.5t-18.5 -45.5t18.5 -45.5t45.5 -18.5t45.5 18.5t18.5 45.5t-18.5 45.5
t-45.5 18.5zM352 512q-27 0 -45.5 -18.5t-18.5 -45.5t18.5 -45.5t45.5 -18.5t45.5 18.5t18.5 45.5t-18.5 45.5t-45.5 18.5zM672 512q-27 0 -45.5 -18.5t-18.5 -45.5t18.5 -45.5t45.5 -18.5t45.5 18.5t18.5 45.5t-18.5 45.5t-45.5 18.5zM352 320q-27 0 -45.5 -18.5
t-18.5 -45.5t18.5 -45.5t45.5 -18.5t45.5 18.5t18.5 45.5t-18.5 45.5t-45.5 18.5zM672 320q-27 0 -45.5 -18.5t-18.5 -45.5t18.5 -45.5t45.5 -18.5t45.5 18.5t18.5 45.5t-18.5 45.5t-45.5 18.5z" />
    <glyph glyph-name="dice-solid" unicode="&#xea88;" 
d="M384 928l-384 -384l384 -384l384 384zM384 838l294 -294l-294 -294l-294 294zM384 704q-13 0 -22.5 -9.5t-9.5 -22.5t9.5 -22.5t22.5 -9.5t22.5 9.5t9.5 22.5t-9.5 22.5t-22.5 9.5zM256 576q-13 0 -22.5 -9.5t-9.5 -22.5t9.5 -22.5t22.5 -9.5t22.5 9.5t9.5 22.5
t-9.5 22.5t-22.5 9.5zM384 576q-13 0 -22.5 -9.5t-9.5 -22.5t9.5 -22.5t22.5 -9.5t22.5 9.5t9.5 22.5t-9.5 22.5t-22.5 9.5zM512 576q-13 0 -22.5 -9.5t-9.5 -22.5t9.5 -22.5t22.5 -9.5t22.5 9.5t9.5 22.5t-9.5 22.5t-22.5 9.5zM858 544l-64 -64h166v-384h-384v166l-64 -64
v-166h512v512h-166zM384 448q-13 0 -22.5 -9.5t-9.5 -22.5t9.5 -22.5t22.5 -9.5t22.5 9.5t9.5 22.5t-9.5 22.5t-22.5 9.5zM768 320q-13 0 -22.5 -9.5t-9.5 -22.5t9.5 -22.5t22.5 -9.5t22.5 9.5t9.5 22.5t-9.5 22.5t-22.5 9.5z" />
    <glyph glyph-name="dice-three-solid" unicode="&#xea89;" 
d="M160 800v-704h704v704h-704zM224 736h576v-576h-576v576zM352 672q-27 0 -45.5 -18.5t-18.5 -45.5t18.5 -45.5t45.5 -18.5t45.5 18.5t18.5 45.5t-18.5 45.5t-45.5 18.5zM512 512q-27 0 -45.5 -18.5t-18.5 -45.5t18.5 -45.5t45.5 -18.5t45.5 18.5t18.5 45.5t-18.5 45.5
t-45.5 18.5zM672 352q-27 0 -45.5 -18.5t-18.5 -45.5t18.5 -45.5t45.5 -18.5t45.5 18.5t18.5 45.5t-18.5 45.5t-45.5 18.5z" />
    <glyph glyph-name="dice-two-solid" unicode="&#xea8a;" 
d="M160 800v-704h704v704h-704zM224 736h576v-576h-576v576zM352 672q-27 0 -45.5 -18.5t-18.5 -45.5t18.5 -45.5t45.5 -18.5t45.5 18.5t18.5 45.5t-18.5 45.5t-45.5 18.5zM672 352q-27 0 -45.5 -18.5t-18.5 -45.5t18.5 -45.5t45.5 -18.5t45.5 18.5t18.5 45.5t-18.5 45.5
t-45.5 18.5z" />
    <glyph glyph-name="digg" unicode="&#xea8b;" 
d="M305 736v-62h90h3t5 3.5t3 8.5v63h-90h-3t-5 -3.5t-3 -9.5zM305 606v-338h90q1 -1 3 -0.5t5 3.5t3 9v339h-90q-1 0 -3 -0.5t-5 -3.5t-3 -9zM172 736v-117h-160q-2 0 -4 -0.5t-5 -3.5t-3 -9v-338h262q2 -1 4 -0.5t5 3.5t3 9v469h-90h-3t-5.5 -3.5t-3.5 -9.5zM172 356
q0 -6 -2.5 -9t-5.5 -4h-64v188q0 6 2.5 9t5.5 3l3 1h61v-188zM441 606v-338h173v-46h-161h-3.5t-5 -3.5t-3.5 -8.5v-63h263h3t5 3.5t3 9.5v459h-262q-2 0 -3.5 -0.5t-5 -3.5t-3.5 -9zM541 531q0 6 2.5 9t5.5 3l3 1h62v-188q0 -6 -3 -9t-6 -4h-64v188zM762 619q-2 0 -4 -0.5
t-5 -3.5t-3 -9v-338h172v-46h-160h-2t-2.5 -0.5t-3.5 -1.5t-3 -4t-1 -6v-63h262h4t5 3.5t3 9.5v459h-262zM922 356q0 -6 -2.5 -9t-5.5 -4h-64v188q0 6 2.5 9t5.5 3l3 1h61v-188z" />
    <glyph glyph-name="digital-ocean" unicode="&#xea8c;" 
d="M512 864q-172 0 -294 -122t-122 -294h160q0 106 75 181t181 75t181 -75t75 -181t-75 -181t-181 -75v-160q172 0 294 122t122 294t-122 294t-294 122zM512 192v192h-192v-192h192zM320 192h-128v-128h128v128zM192 192v96h-96v-96h96z" />
    <glyph glyph-name="digital-tachograph-solid" unicode="&#xea8d;" 
d="M129 736q-27 0 -46 -19t-19 -46v-446q0 -27 19 -46t46 -19h734q27 0 46 19t19 46v446q0 18 -8.5 33t-23.5 23.5t-33 8.5h-734zM128 672h736v-448h-736v448zM192 608v-64h320v64h-320zM192 480v-64h64v64h-64zM320 480v-64h64v64h-64zM448 480v-64h64v64h-64zM192 352v-64
h320v64h-320zM576 352v-64h224v64h-224z" />
    <glyph glyph-name="directions-solid" unicode="&#xea8e;" 
d="M512 864q-40 0 -68 -28l-4 -5l-311 -311l-5 -4q-28 -28 -28 -68t28 -68l320 -320q28 -28 68 -28t68 28l320 320q28 28 28 68t-28 68l-320 320q-28 28 -68 28zM512 800q14 0 23 -9l320 -320q10 -10 10 -23t-10 -23l-320 -320q-10 -10 -23 -10t-23 10l-320 320
q-10 10 -10 23t10 23l320 320q9 9 23 9zM544 608v-96h-128q-27 0 -45.5 -18.5t-18.5 -45.5v-96h64v96h128v-96l128 128z" />
    <glyph glyph-name="discord" unicode="&#xea8f;" 
d="M405 803l-25 -3q-13 -1 -33.5 -5t-72.5 -24t-89 -49l-1 -1q-17 -16 -39 -68q-21 -50 -38 -112q-43 -155 -43 -285v-8l4 -8q36 -64 131 -108q73 -34 120 -36l19 -1l10 17l35 62q62 -14 129 -14t129 14l35 -62l10 -17l19 1q47 2 120 36q95 44 131 108l4 8v8q0 130 -43 285
q-17 62 -38 112q-22 52 -39 68l-2 1q-36 29 -84.5 48.5t-79.5 24.5l-30 5l-25 3l-9 -23q-9 -23 -15 -50q-45 6 -83 6t-83 -6l-15 50zM361 730q1 -4 4 -12q-73 -18 -126 -51l34 -54q54 33 123 46t116 13t116 -13t123 -46l34 54q-53 33 -126 51q3 8 4 12q83 -17 134 -57l3 -5
q3 -6 9 -17t11 -23q19 -45 35 -104q38 -137 40 -257q-30 -46 -97 -77q-37 -18 -78 -25l-16 27q13 5 27 11q22 10 41 21t27 18l8 6l-42 48q-18 -17 -60 -35q-84 -37 -193 -37t-193 37q-19 8 -34 17t-21 14l-5 4l-42 -48q27 -23 76 -45q14 -6 27 -11l-16 -27q-41 7 -78 25
q-67 31 -97 77q2 120 40 257q16 59 35 104q5 12 11 23t9 17l3 5q51 40 134 57zM400 512q-36 0 -60 -32q-20 -27 -20 -64t20 -64q24 -32 60 -32t60 32q20 27 20 64t-20 64q-24 32 -60 32zM624 512q-36 0 -60 -32q-20 -27 -20 -64t20 -64q24 -32 60 -32t60 32q20 27 20 64
t-20 64q-24 32 -60 32zM400 448q4 0 8 -6q8 -11 8 -26t-8 -26q-4 -6 -8 -6t-8 6q-8 11 -8 26t8 26q4 6 8 6zM624 448q4 0 8 -6q8 -11 8 -26t-8 -26q-4 -6 -8 -6t-8 6q-8 11 -8 26t8 26q4 6 8 6z" />
    <glyph glyph-name="discourse" unicode="&#xea90;" 
d="M516 864q-84 0 -161.5 -32.5t-134 -87t-90.5 -130.5t-34 -159v-423h420q111 0 206.5 56.5t150.5 152.5t55 207t-55 207t-150.5 152.5t-206.5 56.5zM512 704q106 0 181 -75t75 -181t-75 -181t-181 -75q-67 0 -125 33l-131 -33l36 126q-36 60 -36 130q0 106 75 181t181 75z
" />
    <glyph glyph-name="divide-solid" unicode="&#xea91;" 
d="M512 768q-39 0 -67.5 -28.5t-28.5 -67.5t28.5 -67.5t67.5 -28.5t67.5 28.5t28.5 67.5t-28.5 67.5t-67.5 28.5zM512 704q14 0 23 -9t9 -23t-9 -23t-23 -9t-23 9t-9 23t9 23t23 9zM160 480v-64h704v64h-704zM512 320q-39 0 -67.5 -28.5t-28.5 -67.5t28.5 -67.5t67.5 -28.5
t67.5 28.5t28.5 67.5t-28.5 67.5t-67.5 28.5zM512 256q14 0 23 -9t9 -23t-9 -23t-23 -9t-23 9t-9 23t9 23t23 9z" />
    <glyph glyph-name="dizzy-solid" unicode="&#xea92;" 
d="M512 864q-172 0 -294 -122t-122 -294t122 -294t294 -122t294 122t122 294t-122 294t-294 122zM512 800q146 0 249 -103t103 -249t-103 -249t-249 -103t-249 103t-103 249t103 249t249 103zM311 631l-46 -46l58 -57l-58 -57l46 -46l57 58l57 -58l46 46l-58 57l58 57
l-46 46l-57 -58zM599 631l-46 -46l58 -57l-58 -57l46 -46l57 58l57 -58l46 46l-58 57l58 57l-46 46l-57 -58zM512 384q-53 0 -90.5 -32t-37.5 -77q0 -83 128 -83t128 83q0 45 -37.5 77t-90.5 32zM512 320q26 0 45 -13.5t19 -31.5q0 -19 -64 -19t-64 19q0 18 19 31.5t45 13.5
z" />
    <glyph glyph-name="dizzy" unicode="&#xea93;" 
d="M512 864q-172 0 -294 -122t-122 -294t122 -294t294 -122t294 122t122 294t-122 294t-294 122zM512 800q146 0 249 -103t103 -249t-103 -249t-249 -103t-249 103t-103 249t103 249t249 103zM311 631l-46 -46l58 -57l-58 -57l46 -46l57 58l57 -58l46 46l-58 57l58 57
l-46 46l-57 -58zM599 631l-46 -46l58 -57l-58 -57l46 -46l57 58l57 -58l46 46l-58 57l58 57l-46 46l-57 -58zM512 384q-53 0 -90.5 -32t-37.5 -77q0 -83 128 -83t128 83q0 45 -37.5 77t-90.5 32zM512 320q26 0 45 -13.5t19 -31.5q0 -19 -64 -19t-64 19q0 18 19 31.5t45 13.5
z" />
    <glyph glyph-name="dna-solid" unicode="&#xea94;" 
d="M192 800q0 -130 99 -231q55 -56 159 -121q-60 -38 -98.5 -67.5t-79 -73t-60.5 -96t-20 -115.5h64q0 44 14.5 83t35.5 68t58.5 61t67.5 52.5t79 50.5q63 -39 92 -59h-117q-30 -18 -89 -64h285l5 -5q29 -30 47 -59h-395q-15 -19 -35 -64h456q8 -32 8 -64h64q0 130 -99 231
q-57 58 -204 148q-141 86 -192 138q-81 83 -81 187h-64zM768 800q0 -30 -9 -64h-455q20 -45 35 -64h393q-19 -32 -52 -64h-283q59 -46 89 -64h118q-28 -20 -60 -42q10 -6 29 -17.5t29 -17.5q52 34 88.5 64.5t71 71t52.5 90t18 107.5h-64z" />
    <glyph glyph-name="dochub" unicode="&#xea95;" 
d="M608 845v-269h269zM224 832v-768h352q106 0 181 75t75 181v192h-192v-158q0 -41 -28.5 -69.5t-69.5 -28.5h-126v384h128v192h-320zM288 768h192v-64h-128v-512h190q67 0 114.5 47.5t47.5 114.5v94h64v-128q0 -79 -56.5 -135.5t-135.5 -56.5h-288v640zM672 691l51 -51h-51
v51z" />
    <glyph glyph-name="docker" unicode="&#xea96;" 
d="M384 768v-96h-192v-96h-96v-96h-30q-16 0 -25 -13q-3 -3 -4 -6q-1 -2 -3 -10q-3 -11 -3 -26q0 -36 9 -71l-8 -2h9q10 -39 31 -75l1 -2q3 -12 13 -19l1 -1q10 -14 17 -22q92 -106 257 -106q140 0 254.5 57.5t185.5 167.5h162q-2 0 -7.5 1.5t-8.5 2.5t-9.5 2.5t-9 3t-8 4
t-7.5 4.5l-5.5 5.5t-2.5 7t1 8.5q-31 -36 -98 -27q18 30 31 59q76 4 116 43q12 11 20.5 24.5t10.5 21.5l3 8q6 20 -10 33q-5 4 -15 9.5t-41 13t-62 4.5q-11 28 -29.5 52t-31.5 34l-13 9q-10 6 -22 4q-8 -2 -14 -7q-15 -13 -26 -34q-23 -42 -18 -93q1 -7 3.5 -13.5t6.5 -15
t6 -13.5q-12 -8 -13 -8q-31 -15 -67 -15h-3v96h-96v192h-160zM448 704h32v-32h-32v32zM256 608h32v-32h-32v32zM352 608h32v-32h-32v32zM448 608h32v-32h-32v32zM779 598q23 -26 29 -58q3 -14 14.5 -21.5t25.5 -3.5q36 10 65 1q-1 -1 -1.5 -2t-1.5 -2q-31 -30 -90 -28
q-22 1 -31 -20q-22 -55 -51 -96q-36 -14 -95 -6.5t-66 25.5q-23 -27 -79 -27t-80 27q-8 -22 -85 -26.5t-96 21.5q-17 -16 -59.5 -19t-75.5 16q-4 21 -5 37h546q50 0 95 22q17 8 28 16l11 8q12 7 15 21.5t-6 25.5q-13 16 -15 42q-2 23 8 47zM160 512h32v-32h-32v32zM256 512
h32v-32h-32v32zM352 512h32v-32h-32v32zM448 512h32v-32h-32v32zM544 512h32v-32h-32v32zM109 352h617q-124 -161 -365 -161q-109 0 -177 53q30 1 59.5 6t43.5 10l14 4q13 3 20.5 13.5t5 24t-13.5 21t-24 4.5q-2 0 -4 -1t-5 -2q-8 -3 -21.5 -6t-55 -8.5t-76.5 1.5
q-11 20 -18 41zM343 346q-8 0 -13.5 -5.5t-5.5 -13.5t5.5 -13.5t13.5 -5.5t13 5.5t5 13.5q0 4 -1 7q-2 -4 -7 -4q-7 0 -7 8q0 4 3 6q-5 2 -6 2z" />
    <glyph glyph-name="dog-solid" unicode="&#xea97;" 
d="M650 864l-8 -21l-88 -235h-246q-44 0 -80 -23l-77 78l-46 -46l78 -77q-23 -36 -23 -80q0 -25 8 -48l23 -67l-30 -113l-1 -4v-164h64v156l31 117l2 10l-3 9l-26 77q-4 12 -4 27q0 35 24.5 59.5t59.5 24.5h257l107 -105v90l-58 57l66 177l8 -12l9 -15h60l98 -74l-27 -54
h-124v-188l-30 -90l-2 -5v-105l32 -128v-28h64v36l-32 128v88l30 90l2 5v133h100l69 138l-22 16l-136 102h-46l-31 49l-9 15h-43zM327 384l-39 -156v-164h64v156l25 100h30q48 -32 105 -32h32v-68l32 -128v-28h64v36l-32 128v124h-96q-15 0 -34.5 7t-31.5 13l-12 7l-8 5h-99
z" />
    <glyph glyph-name="dollar-sign-solid" unicode="&#xea98;" 
d="M480 864v-67q-68 -12 -114 -65.5t-46 -123.5q0 -79 62 -129q32 -26 118 -60q74 -30 102 -52q38 -30 38 -79q0 -52 -37.5 -90t-90.5 -38t-90.5 37.5t-37.5 90.5v32h-64v-32q0 -71 45.5 -124t114.5 -65v-67h64v67q69 12 114.5 65.5t45.5 123.5q0 79 -62 129q-34 28 -118 61
q-76 31 -102 51q-38 30 -38 79q0 53 37.5 90.5t90.5 37.5t90.5 -37.5t37.5 -90.5v-32h64v32q0 71 -45.5 124t-114.5 65v67h-64z" />
    <glyph glyph-name="dolly-flatbed-solid" unicode="&#xea99;" 
d="M608 768q-39 0 -67.5 -28.5t-28.5 -67.5h-192v-384h576v384h-192q0 39 -28.5 67.5t-67.5 28.5zM128 736v-64h32q13 0 22.5 -9.5t9.5 -22.5v-352q0 -53 37.5 -90.5t90.5 -37.5h576v64h-576q-29 0 -46.5 17.5t-17.5 46.5v352q0 39 -28.5 67.5t-67.5 28.5h-32zM784 160
q-20 0 -34 -14t-14 -34t14 -34t34 -14t34 14t14 34t-14 34t-34 14zM400 160q-20 0 -34 -14t-14 -34t14 -34t34 -14t34 14t14 34t-14 34t-34 14zM608 704q13 0 22.5 -9.5t9.5 -22.5h-64q0 13 9.5 22.5t22.5 9.5zM384 608h448v-256h-448v256z" />
    <glyph glyph-name="dolly-solid" unicode="&#xea9a;" 
d="M595 907l-237 -87l11 -30l54 -146l11 -30l237 87l-11 30l-54 146zM275 864l-30 -11l-85 -31l21 -60l56 20l213 -569l11 -30l30 11l340 128l-22 60l-310 -117l-213 569zM557 825l32 -86l-117 -43l-32 86zM697 643l-237 -87l11 -30l54 -146l11 -30l237 87l-11 31l-54 145z
M659 561l32 -86l-117 -43l-32 86zM352 288q-39 0 -67.5 -28.5t-28.5 -67.5t28.5 -67.5t67.5 -28.5t67.5 28.5t28.5 67.5t-28.5 67.5t-67.5 28.5zM160 96v-64h704v64h-704zM352 224q14 0 23 -9t9 -23t-9 -23t-23 -9t-23 9t-9 23t9 23t23 9z" />
    <glyph glyph-name="donate-solid" unicode="&#xea9b;" 
d="M512 864q-132 0 -226 -94t-94 -226t94 -226t226 -94t226 94t94 226t-94 226t-226 94zM512 800q106 0 181 -75t75 -181t-75 -181t-181 -75t-181 75t-75 181t75 181t181 75zM480 736v-38q-2 -1 -4.5 -2t-4.5 -2l-4 -2q-7 -4 -12.5 -8t-11.5 -10q-10 -10 -17 -23
q-3 -6 -5 -13q-2 -5 -3 -10t-1.5 -10t-0.5 -10q0 -10 2 -19q4 -19 15 -34q5 -8 11 -15q14 -13 31 -20q18 -8 37 -8q7 0 13 -2q5 -3 9.5 -7.5t7.5 -9.5q2 -6 2 -13t-2.5 -13t-7 -10t-9.5 -7q-3 -1 -6.5 -1.5t-6.5 -0.5q-7 0 -13 2q-5 3 -10 7q-9 9 -9 23h-64q0 -8 1 -15.5
t4 -14.5q2 -7 5 -13l8 -12t9.5 -11.5t11 -9.5t12 -7.5t13.5 -6.5v-38h64v38q16 6 29.5 17t22 26t11.5 32q1 7 1 15q0 10 -2 19q-2 10 -6 18q-1 3 -2.5 6t-3 5.5t-3.5 4.5q-5 8 -11.5 14.5t-14 12t-16.5 8.5l-4 2t-4.5 1.5t-4.5 1.5t-5 1q-5 1 -9.5 1.5t-9.5 0.5
q-3 0 -6.5 0.5t-6.5 1.5q-5 3 -9.5 7.5t-7.5 9.5l-2 13q0 7 2 13q3 5 7.5 9.5t9.5 7.5q6 2 13 2t13 -2.5t10 -6.5t6.5 -10t2.5 -13h64q0 8 -1 15.5t-4 14.5q-14 44 -59 60v38h-64zM64 288v-256h64v192h172q-40 27 -73 64h-163zM797 288q-33 -37 -73 -64h172v-192h64v256
h-163zM192 160v-64h640v64h-640z" />
    <glyph glyph-name="door-closed-solid" unicode="&#xea9c;" 
d="M256 800v-704h512v704h-512zM320 736h384v-576h-384v576zM640 480q-13 0 -22.5 -9.5t-9.5 -22.5t9.5 -22.5t22.5 -9.5t22.5 9.5t9.5 22.5t-9.5 22.5t-22.5 9.5z" />
    <glyph glyph-name="door-open-solid" unicode="&#xea9d;" 
d="M508 832l-3 -1l-281 -66v-648l26 -4l256 -48l3 -1h67v768h-68zM640 768v-64h96v-512h-96v-64h160v640h-160zM512 767v-639l-224 42v545zM459 480q-9 0 -15.5 -9.5t-6.5 -22.5t6.5 -22.5t15.5 -9.5t15 9.5t6 22.5t-6 22.5t-15 9.5z" />
    <glyph glyph-name="dot-circle-solid" unicode="&#xea9e;" 
d="M512 832q-159 0 -271.5 -112.5t-112.5 -271.5t112.5 -271.5t271.5 -112.5t271.5 112.5t112.5 271.5t-112.5 271.5t-271.5 112.5zM512 768q133 0 226.5 -93.5t93.5 -226.5t-93.5 -226.5t-226.5 -93.5t-226.5 93.5t-93.5 226.5t93.5 226.5t226.5 93.5zM512 544
q-40 0 -68 -28t-28 -68t28 -68t68 -28t68 28t28 68t-28 68t-68 28z" />
    <glyph glyph-name="dot-circle" unicode="&#xea9f;" 
d="M512 832q-159 0 -271.5 -112.5t-112.5 -271.5t112.5 -271.5t271.5 -112.5t271.5 112.5t112.5 271.5t-112.5 271.5t-271.5 112.5zM512 768q133 0 226.5 -93.5t93.5 -226.5t-93.5 -226.5t-226.5 -93.5t-226.5 93.5t-93.5 226.5t93.5 226.5t226.5 93.5zM512 544
q-40 0 -68 -28t-28 -68t28 -68t68 -28t68 28t28 68t-28 68t-68 28z" />
    <glyph glyph-name="dove-solid" unicode="&#xeaa0;" 
d="M315 907l-37 -13q-76 -25 -107 -68q-28 -40 -18 -88q5 -27 25 -58q-3 -2 -6.5 -3.5t-6.5 -3.5t-8 -6q-14 -14 -23 -33t-11.5 -45.5t7.5 -54.5q10 -30 31 -49.5t45 -28.5q2 -1 4 -1h3t3 -0.5t4 -0.5q-4 -23 -4 -28q2 -76 59 -113q31 -20 75 -27l-177 -236l39 -16
q49 -19 105.5 -26.5t102.5 -4t84.5 10t60.5 13.5l21 7l22 7v123q53 8 102 28q60 26 104 72.5t50 116.5q4 46 -15 115q-1 3 -1.5 5.5t-1 3.5t-1 3t-1.5 4h105l-25 47q-17 33 -25 51q18 42 6.5 82.5t-45.5 59.5q-20 11 -43 13t-47 -5t-48 -24.5t-44 -44.5q-1 -1 -30 -37
q-5 9 -10 22q-30 74 -30 188v32h-32q-55 0 -89 -27q-29 -23 -38 -61q-2 -8 -3 -15t-0.5 -13.5t0.5 -9t1.5 -9.5t1.5 -8q-1 -1 -7.5 -3.5t-9 -3.5t-8 -5.5t-11.5 -9.5q-15 -16 -25 -38q-56 80 -68 175zM547 824q6 -109 31 -172q12 -28 27 -50q-43 -51 -45 -54q-62 30 -116 81
q-8 34 15 56q4 4 8.5 7.5t8.5 6t7 4l5 2.5l2 1l28 9l-7 29q-5 26 0 48q5 18 16 27q2 2 10 3.5t10 1.5zM267 815q28 -120 118 -215l0.5 -1t1.5 -1q64 -66 144 -107l37 -32q131 153 162 194q19 26 39 38.5t34 11t25 -6.5q18 -10 21.5 -26t-12.5 -44l-9 -14l6 -16q2 -3 3 -6
t3.5 -7t3.5 -7h-91l17 -44q9 -22 17 -52q16 -59 13 -93q-8 -91 -114 -135q-25 -11 -53 -18t-44 -8l-15 -2l-30 -2v-132q-23 -7 -54.5 -12.5t-93.5 -6t-117 12.5l149 198l58 6l-12 64q-28 -6 -63 -6q-68 -1 -102 21q-28 18 -29 60q0 5 0.5 10t1 9l1 8t1.5 6.5t1.5 5t0.5 4.5
l15 44l-47 -2q-12 -1 -27 5q-27 10 -37 37q-7 17 -5 31t5.5 21t12.5 15q6 7 14 12t12 7l5 2l49 16l-36 37q-26 28 -32 55q-4 22 8 38q3 4 9.5 8t18 10t16.5 9z" />
    <glyph glyph-name="download-solid" unicode="&#xeaa1;" 
d="M480 832v-530l-169 169l-46 -46l224 -224l23 -22l23 22l224 224l-46 46l-169 -169v530h-64zM224 128v-64h576v64h-576z" />
    <glyph glyph-name="draft2digital" unicode="&#xeaa2;" 
d="M505 798q-121 0 -204 -65q-66 -44 -75 -120q-2 -12 -2 -21q0 -46 33 -79t79 -33t79 33t33 79q0 35 -20 63.5t-53 41.5q15 3 27 3q45 0 77.5 -32t32.5 -76q0 -22 -10.5 -47.5t-37 -60t-50 -62t-72 -75t-79 -76.5t-93.5 -88l-59 -55h625v-96l224 128l-224 128v-96h-187
q58 62 91.5 101.5t66.5 89t47 97.5t14 101q0 93 -75 155t-188 62zM499 734h6q85 0 142 -43.5t57 -109.5q0 -33 -6 -62.5t-23 -62t-32 -56.5t-48.5 -62.5t-55.5 -62.5t-70 -73l-9 -10h-187q64 61 106.5 103t83 87t63.5 78.5t36.5 67.5t13.5 64q0 44 -21 81.5t-56 60.5z
M336 640q20 0 34 -14t14 -34t-14 -34t-34 -14t-34 14t-14 34v3.5t0.5 3.5t0.5 3q2 8 6 15t10.5 12t14.5 8t16 3zM800 178l31 -18l-31 -18v36z" />
    <glyph glyph-name="drafting-compass-solid" unicode="&#xeaa3;" 
d="M480 864v-101q-42 -11 -69 -45t-27 -78q0 -49 35 -87l-107 -233h-120v-64h90l-91 -198l58 -27l104 225h127v-64h64v64h127l103 -225l58 26l-91 199h91v64h-120l-107 234q35 38 35 86q0 44 -27 78t-69 45v101h-64zM512 704q27 0 45.5 -18.5t18.5 -45.5q0 -28 -20 -47
l-1 -1l-32 -14l118 -258h-97v64h-64v-64h-98l118 256l-32 15l1 1q-21 19 -21 48q0 27 18.5 45.5t45.5 18.5z" />
    <glyph glyph-name="dragon-solid" unicode="&#xeaa4;" 
d="M256 864v-192l-160 -48l112 -112l-80 -160h160v-320h64v293q73 -32 160 -67v-1v-1q0 -108 63 -168q60 -56 161 -56v64q-76 0 -117 38q-36 35 -42 98q71 -26 106 -36q14 -4 28 -4q29 0 56 14t45.5 38.5t23.5 53.5l28 150l-96 -64q-42 0 -76.5 10t-54 24t-32.5 28t-18 24
l-5 10q15 36 62 60l28 -28v40q6 3 18 6l46 -46v57q5 1 6 1l58 -58v64l96 -64v155q0 36 -22 64.5t-56 34.5q-9 2 -18 2q-37 0 -66 -27l-46 123l-48 -128h-192zM320 744l109 -72h329l18 21q10 11 24 11h6q7 -2 13 -7t9.5 -13t3.5 -17v-27h-33q-11 0 -25 -1.5t-44 -5.5t-58 -13
t-58 -23t-54 -38t-37 -54l-9 -23l8 -24q8 -22 25.5 -44t46.5 -44t74.5 -36t99.5 -14h7l-2 -11q-4 -21 -22.5 -37t-39.5 -16q-6 0 -11 2q-92 25 -386 153l-12 5h-70l33 67l21 42l-69 69l57 17l46 13v120zM416 640q0 -3 1 -7t5.5 -15t10.5 -19.5t18.5 -15.5t28.5 -7
q25 0 49 16t35 32l12 16h-160z" />
    <glyph glyph-name="draw-polygon-solid" unicode="&#xeaa5;" 
d="M448 832q-27 0 -45.5 -18.5t-18.5 -45.5v-2l-162 -102q-15 8 -30 8q-27 0 -45.5 -18.5t-18.5 -45.5q0 -36 32 -55v-370q-32 -19 -32 -55q0 -27 18.5 -45.5t45.5 -18.5q36 0 55 32h402q19 -32 55 -32q27 0 45.5 18.5t18.5 45.5q0 20 -10 35l78 157q25 2 42.5 20.5
t17.5 43.5q0 23 -15 41t-37 22l-61 183q17 19 17 42q0 27 -18.5 45.5t-45.5 18.5q-23 0 -42 -17l-183 62q-5 22 -22.5 36.5t-40.5 14.5zM490 720l183 -60q4 -19 18 -33t33 -18l61 -182q-17 -19 -17 -43q0 -20 11 -36l-79 -156q-34 -2 -51 -32h-402q-8 15 -23 23v370
q32 19 32 55v2l162 102q15 -8 30 -8q24 0 42 16z" />
    <glyph glyph-name="dribbble-square" unicode="&#xeaa6;" 
d="M160 800v-704h704v704h-704zM224 736h576v-576h-576v576zM520 704q-19 0 -33 -19t-20.5 -42.5t-10 -54t-4 -42.5t-0.5 -20q0 -29 2 -58q-16 6 -32 6q-49 0 -75.5 -35.5t-26.5 -86.5q0 -50 28 -89t81 -39q50 0 91 57q30 -30 60 -30q19 0 36 14.5t30 38t21 42t14 38.5
q3 10 -1.5 19t-14.5 12q-9 3 -18 -1.5t-12 -14.5q-11 -35 -28.5 -66t-26.5 -33q-16 0 -35 26q46 97 46 197q0 181 -71 181zM522 652q21 -31 21 -129q0 -64 -26 -138q-17 58 -17 141q0 87 22 126zM413 425h2.5h3.5h3q9 0 18 -3.5t14 -7.5l4 -4q2 -3 4 -4q9 -45 28 -82
q-30 -51 -61 -51q-19 0 -32 7.5t-18.5 20t-7.5 22.5t-2 20q0 5 1 13.5t4.5 24.5t13.5 28.5t25 15.5z" />
    <glyph glyph-name="dribbble" unicode="&#xeaa7;" 
d="M512 832q-159 0 -271.5 -112.5t-112.5 -271.5t112.5 -271.5t271.5 -112.5t271.5 112.5t112.5 271.5t-112.5 271.5t-271.5 112.5zM512 768q120 0 211 -80q-11 -16 -27 -31q-54 -52 -138 -83q-52 95 -119 186q35 8 73 8zM376 738q68 -89 120 -183q-146 -39 -297 -39
q16 74 63 132t114 90zM767 641q62 -83 65 -185q-56 13 -125 13q-43 0 -95 -6q-8 18 -25 53q91 35 153 95q15 14 27 30zM525 497q14 -29 22 -46q-90 -25 -160.5 -86.5t-116.5 -125.5q-78 90 -78 209v4q165 -2 333 45zM707 406q65 0 120 -14q-23 -130 -131 -206
q-18 107 -59 216q40 4 70 4zM572 391q49 -124 65 -238q-59 -25 -125 -25q-109 0 -195 66q17 23 37.5 46.5t54 55.5t76.5 58t87 37z" />
    <glyph glyph-name="dropbox" unicode="&#xeaa8;" 
d="M377 817l-20 -13l-253 -163l37 -28l112 -85l-112 -85l-39 -29l42 -24l116 -68v-107l14 -9l238 -157l18 12l220 143l14 10v107l116 69l39 23l-34 29l-107 91l106 87l35 28l-38 24l-208 132l-20 12l-18 -15l-123 -101l-117 101zM659 738l151 -97l-85 -69l-157 91zM371 737
l88 -75l-151 -96l-93 71zM512 620l154 -88l-154 -96l-145 91zM725 494l84 -72l-90 -54q-4 -2 -8 -5l-56 -33l-87 66zM308 489l148 -93l-84 -66l-155 91zM513 358l120 -92l18 -13l18 11l31 19v-34l-188 -123l-188 124v34l34 -20l19 -11l17 13z" />
    <glyph glyph-name="drum-solid" unicode="&#xeaa9;" 
d="M870 797l-354 -168q-16 11 -36 11q-27 0 -45.5 -18.5t-18.5 -45.5t18.5 -45.5t45.5 -18.5q25 0 43.5 17t20.5 42l194 92q94 -40 94 -87q0 -48 -94 -88t-226 -40t-226 40t-94 88t94 88t226 40h16l113 53q-65 11 -129 11q-164 0 -274 -55t-110 -137v-320q0 -45 36 -84
q30 -33 86 -58q110 -50 262 -50t262 50q56 25 86 58q36 39 36 84v320q0 70 -84 122l85 41zM192 467q49 -37 128 -59v-253q-22 7 -44 17q-42 19 -65 44q-19 20 -19 40v211zM832 467v-211q0 -20 -19 -40q-23 -25 -65 -44q-22 -10 -44 -17v253q79 22 128 59zM384 394
q60 -10 128 -10t128 10v-254q-64 -12 -128 -12t-128 12v254z" />
    <glyph glyph-name="drum-steelpan-solid" unicode="&#xeaaa;" 
d="M512 768q-172 0 -294 -51.5t-122 -124.5v-288q0 -73 122 -124.5t294 -51.5t294 51.5t122 124.5v288q0 73 -122 124.5t-294 51.5zM512 704q41 0 81 -4q3 0 8.5 -0.5t6.5 -0.5v-14q0 -21 -13 -38.5t-35 -28t-48 -10.5t-48 10.5t-35 28t-13 38.5v14q48 5 96 5zM413 698
q-8 0 -15.5 -1t-15.5 -3q1 1 5.5 1.5t7.5 0.5q2 1 4.5 1t4.5 0.5t4.5 0.5h4.5zM611 698q2 0 6 -0.5t7 -0.5t5 -1q2 0 4.5 -0.5t5 -0.5t3.5 -1q-17 3 -31 4zM369 692q-3 0 -5.5 -0.5t-6 -1.5t-5.5 -1q2 0 4 1q3 1 4.5 1t4.5 0.5t4 0.5zM655 692h2.5t3 -0.5t2.5 -0.5
q2 0 4.5 -1t4.5 -1q-15 3 -17 3zM337 686l33 -58q22 -36 10 -79q-9 -32 -35 -53q-43 9 -79.5 22.5t-58.5 26.5t-34.5 25.5t-12.5 21.5q0 3 1 7q6 12 26.5 27.5t60 32t89.5 27.5zM687 686q80 -18 128.5 -46.5t48.5 -47.5q0 -9 -12.5 -21.5t-34.5 -25.5t-58.5 -26.5
t-79.5 -22.5q-13 11 -22 24t-13 29q-11 42 10 79zM512 544q31 0 55.5 -16.5t33.5 -43.5q16 2 35 5q-60 -9 -124 -9t-124 9q19 -3 35 -5q9 27 33.5 43.5t55.5 16.5zM160 498q56 -37 149.5 -59.5t202.5 -22.5q73 0 140.5 10.5t121 29t90.5 42.5v-194q0 -10 -14 -24
t-44.5 -29.5t-70.5 -28.5t-99 -21.5t-124 -8.5t-124 8.5t-99 21.5t-70.5 28.5t-44.5 29.5t-14 24v194zM356 494q7 -1 16 -3q-9 2 -16 3zM668 494q-4 -1 -8 -1.5t-8 -1.5q9 2 16 3z" />
    <glyph glyph-name="drumstick-bite-solid" unicode="&#xeaab;" 
d="M629 832q-111 0 -189 -78q-76 -76 -175 -418l-51 -51q-11 3 -22 3q-40 0 -68 -28t-28 -68q0 -32 19 -57.5t49 -34.5q6 -19 19.5 -34.5t32.5 -24.5t40 -9q40 0 68 28t28 68q0 11 -3 22l51 51q120 34 212 68l37 14l-21 33q-20 32 -20 68q0 53 37.5 90.5t90.5 37.5
q55 0 93 -41l37 -40l17 52q23 72 5.5 144.5t-70.5 126.5q-26 25 -57 43t-64.5 26.5t-67.5 8.5zM628.5 768q84.5 0 143.5 -60q66 -65 59 -158q-21 13 -45.5 19.5t-49.5 6.5q-79 0 -135.5 -56.5t-56.5 -135.5q0 -34 12 -67q-61 -21 -143 -46l-78 78q90 300 150 359
q59 60 143.5 60zM306 288l46 -46l-79 -78l11 -21q4 -8 4 -15q0 -13 -9.5 -22.5t-22.5 -9.5q-9 0 -16 4.5t-11.5 11.5t-4.5 16v32h-32q-9 0 -16 4.5t-11.5 11.5t-4.5 16q0 13 9.5 22.5t22.5 9.5q7 0 15 -4l21 -11z" />
    <glyph glyph-name="drupal" unicode="&#xeaac;" 
d="M465 871l-16 -73q-4 -18 -13 -38q-16 -34 -33 -42q-107 -35 -175 -126.5t-68 -207.5q0 -146 103 -249t249 -103t249 103t103 249q0 126 -80 223t-201 122q-2 0 -9 5.5t-18 15t-19 18.5l-30 40zM490 725q15 -17 22.5 -25t24 -19t33.5 -15q99 -20 164.5 -99t65.5 -183
q0 -57 -23 -112q11 30 11 58q0 21 -10 38.5t-33 17.5q-16 0 -65 -33.5t-66 -33.5q-16 0 -43.5 19.5t-62.5 39t-69 19.5q-46 -1 -79 -32t-33 -71q-1 -44 30 -66q23 -15 66 -15q37 0 106 41.5t86 40.5t55.5 -39.5t49.5 -39.5q23 -2 45 31q-37 -69 -104.5 -110t-148.5 -41
q-120 0 -204 84t-84 204q0 95 56 170.5t144 103.5l2 1q39 15 64 66zM586 248q-7 -1 -15 -4q-12 -5 -31 -22q-11 -10 -5 -18q4 -6 20 7q1 1 4 3.5t4 3.5t4 3l4.5 3t4.5 2t6 1.5t7 1t8 0.5q23 0 33 -18q5 -10 10 -7q9 5 6 13q-8 20 -16 25q-9 6 -30 6h-14zM656 175q-2 0 -4 -2
q-30 -22 -88 -22q-52 0 -77 20q-1 1 -5 1q-5 0 -11 -5q-8 -6 0 -14q33 -30 116 -22q16 2 33.5 8.5t26.5 12t12 8.5q4 4 2 11q-1 5 -5 4z" />
    <glyph glyph-name="dumbbell-solid" unicode="&#xeaad;" 
d="M682 848q-40 0 -68 -28q-17 -17 -24 -43q-14 3 -20 3q-41 0 -68 -27q-28 -28 -28 -67.5t28 -67.5l27 -27l-160 -160l-27 27q-28 28 -67 28q-40 0 -68 -28q-37 -37 -25 -89q-26 -7 -42 -23q-28 -28 -28 -67.5t28 -67.5l1 -1l43 -44l-22 -22l46 -46l22 22l45 -44
q28 -28 67.5 -28t67.5 28q17 17 24 42q52 -11 88 25q28 28 28 67.5t-28 67.5l-27 27l160 160l27 -27q28 -28 67.5 -28t67.5 28q36 36 25 88q25 7 42 24q28 28 28 67.5t-28 67.5l-44 45l22 22l-46 46l-22 -22l-45 44q-28 28 -67 28zM682 784q13 0 22 -9l135 -135q9 -9 9 -22
t-9 -22t-22.5 -9t-22.5 9l-134 134q-9 9 -9 22.5t9 22.5t22 9zM570 717q12 0 22 -10l179 -179q9 -9 9 -22.5t-9 -22.5q-21 -21 -45 1l-179 179q-21 21 1 44q10 10 22 10zM574 546l36 -36l-160 -160l-36 36zM275 422q12 0 23 -10l179 -179q21 -21 -1 -44q-23 -21 -44 0
l-22 22l-4 3l-131 132l-22 22q-9 9 -9 22.5t9 22.5t22 9zM207 310q13 0 23 -10l134 -134q9 -9 9 -22.5t-9 -22.5t-22 -9t-22 9l-135 135q-9 9 -9 22t9 22q10 10 22 10z" />
    <glyph glyph-name="dumpster-fire-solid" unicode="&#xeaae;" 
d="M160 768l-64 -256h43l10 -64h-53v-64h64l32 -192v-64h64v64h372q13 31 35 64h-417l-42 256h616l-17 -104l47 35q67 -55 71 -59h7v64h-53l10 64h43l-64 256h-704zM210 704h89l-25 -128h-96zM364 704h116v-128h-140zM544 704h116l24 -128h-140v128zM725 704h89l32 -128h-96
zM849 363l-21 -18q-39 -32 -77 -77q-16 -20 -28.5 -38t-25 -40.5t-19 -47.5t-6.5 -49q0 -74 53 -118q50 -42 123 -42t123 42q53 44 53 118q0 70 -79 169q-17 21 -35.5 41.5t-29.5 30.5l-10 10zM847 274q28 -27 48 -52q27 -34 46 -70.5t19 -58.5q0 -44 -31 -70q-9 -8 -20 -13
q3 11 3 19q0 19 -3 37.5t-7 33t-9.5 27.5t-11 22.5t-9.5 16t-7 10.5l-3 3l-3 -48q-6 -36 -21 -36q-8 0 -16.5 6.5t-13.5 13.5l-5 7q-19 -41 -19 -93q0 -8 3 -19q-6 2 -11 5.5t-9 7.5q-15 12 -23 29.5t-8 40.5q0 28 18.5 64t46.5 70q19 23 46 47z" />
    <glyph glyph-name="dumpster-solid" unicode="&#xeaaf;" 
d="M160 768l-64 -256h43l10 -64h-53v-64h64l32 -192v-64h64v64h512v-64h64v64l32 192h64v64h-53l10 64h43l-64 256h-704zM210 704h89l-25 -128h-96zM364 704h116v-128h-140zM544 704h116l24 -128h-140v128zM725 704h89l32 -128h-96zM204 512h616l-42 -256h-532z" />
    <glyph glyph-name="dungeon-solid" unicode="&#xeab0;" 
d="M512 800q-16 0 -32.5 -1.5t-32 -4.5t-31.5 -8l46 -120q26 6 50 6t50 -6l46 120q-48 14 -96 14zM356 763q-72 -36 -122 -100l108 -69l10 10l2 2l2 2q21 21 47 35zM668 763l-47 -120q25 -14 47 -35l2 -2l2 -2q8 -8 15 -17l111 65q-17 23 -37 43.5t-44 37.5t-49 30zM200 609
q-40 -76 -40 -161h128q0 48 20 92zM512 608q-17 0 -32 -3v-445h64v445q-7 1 -15.5 2t-16.5 1zM830 597l-110 -65q16 -41 16 -84h128q0 77 -34 149zM416 576q-64 -48 -64 -128v-288h64v416zM608 576v-416h64v288q0 80 -64 128zM160 384v-128h128v128h-128zM736 384v-128h128
v128h-128zM160 192v-96h128v96h-128zM736 192v-96h128v96h-128z" />
    <glyph glyph-name="dyalog" unicode="&#xeab1;" 
d="M192 800v-224h64v160h224q119 0 203.5 -84.5t84.5 -203.5t-84.5 -203.5t-203.5 -84.5h-288v-64h288q146 0 249 103t103 249t-103 249t-249 103h-288z" />
    <glyph glyph-name="earlybirds" unicode="&#xeab2;" 
d="M475 832q-1 0 -2.5 -3.5t-3.5 -10t-2 -14t2.5 -17t9.5 -18.5q-69 -13 -125 -74q-22 -1 -32.5 -1.5t-29.5 -2.5t-29.5 -5.5t-22.5 -9t-18.5 -14.5t-8.5 -21q-1 0 -6 -0.5t-9 -1.5t-5 -2q-3 -6 -3 -24q1 -41 36 -35q2 -10 3.5 -21.5t2.5 -19.5t3 -17.5t6 -18t10 -17.5
q-2 -13 -4 -31q-5 -2 -15 -7q-16 -8 -24 -11.5t-21.5 -10.5t-19.5 -11.5t-15 -11t-12.5 -12t-6.5 -12.5t-3 -14t3 -15q8 -19 29 -24t43 0.5t44 16.5q13 -72 59 -118.5t119 -64.5q-55 2 -96 2q-9 0 -15.5 -5t-8 -12t0 -14t8 -12t15.5 -5l12 1t34.5 3t47.5 2l-2 -19
q-2 -18 15 -23.5t26 10.5q0 -14 10.5 -19.5t21.5 0t12 18.5l1 8q0 -16 11.5 -22t22 0.5t9.5 20.5q2 -8 7.5 -12.5t12 -4.5t12.5 2.5t9.5 9t1.5 14.5l-1 18q5 0 30 0.5t38 1.5t35.5 2.5t43 4.5t40.5 8q14 3 30 7t24.5 6t18.5 4q18 2 5 15q-6 5 -10 5q-1 0 -4 -1t-11 -2
q10 10 13 23t1.5 21t-3.5 10h-4.5t-9.5 -1.5t-11.5 -3.5t-11.5 -6.5t-10 -10.5q-3 5 -7.5 8.5t-8.5 5.5t-8 3l-6 1.5t-3 -0.5q-2 -1 -4.5 -10.5t1.5 -24t18 -23.5q-85 -13 -156 -10q-38 1 -38 2q80 15 130 63.5t66 128.5q22 -12 42 -18.5t41 -5t28 18.5q1 8 2 13t-3 11.5
t-7 11.5t-11 11.5t-14 11t-16 11.5t-18 12t-19 12t-19 12q-1 15 -3 29t-5 28q4 10 6.5 22t4 27t3.5 25q18 -3 26.5 7.5t9.5 27.5q-1 20 -4 24q0 2 -4 2.5t-9 1t-6 0.5q-6 30 -36.5 40.5t-83.5 12.5q-14 16 -30 28.5t-34.5 23.5t-40 18t-43.5 9q7 7 9.5 17t1 16t-3.5 7h-3
t-6 -1.5t-7.5 -3.5t-7.5 -5t-6 -7q-4 13 -13.5 22t-17.5 12t-10 2zM663 800q-36 3 -38 -18q0 -11 4.5 -14.5t13 -2t19.5 4t23.5 4t25.5 -1.5q2 2 2.5 4t-3.5 5t-7 5t-8.5 4.5t-7.5 3t-5 2.5q-5 1 -9.5 2t-9.5 2zM367 800q-11 -2 -21 -5q-2 -1 -3.5 -1.5t-5 -2t-6.5 -3
l-7 -3.5t-6.5 -4t-4 -4t-1.5 -4t2 -4q15 4 28.5 2t26 -5t21.5 -4.5t14 2.5t5 16q-2 24 -42 20zM386 655q37 -1 56.5 -13.5t19.5 -46.5q0 -22 -7 -55.5t-16 -43.5q-13 -14 -68.5 -15.5t-65.5 5.5q-20 9 -34.5 67t-1.5 81q4 6 10.5 10t17 6t18.5 2.5t25 1.5q31 2 46 1z
M635 655q14 0 45 -1q22 -1 32.5 -2t23 -5.5t16.5 -12.5q8 -20 4 -51t-17 -61.5t-24 -36.5q-9 -3 -36.5 -4.5t-58 2t-39.5 13.5t-15 43.5t-5 55.5q-1 23 9.5 36.5t25.5 18t39 5.5zM384 608q-13 0 -22.5 -9.5t-9.5 -22.5t9.5 -22.5t22.5 -9.5q7 0 12.5 2.5t10 7t7 10t2.5 12.5
q0 13 -9.5 22.5t-22.5 9.5zM640 608q-13 0 -22.5 -9.5t-9.5 -22.5q0 -7 2.5 -12.5t7 -10t10 -7t12.5 -2.5q13 0 22.5 9.5t9.5 22.5t-9.5 22.5t-22.5 9.5zM505 557q2 1 8 1t8 -1q7 -2 10.5 -9.5t7.5 -23.5t5 -21q-11 -2 -19 -12.5t-10 -10.5q-1 0 -11.5 8t-23.5 8q3 8 7 24.5
t8 25.5t10 11z" />
    <glyph glyph-name="ebay" unicode="&#xeab3;" 
d="M273 640v-187q-14 91 -117 91q-42 0 -69.5 -14t-38 -36t-13.5 -37t-3 -29v-11.5t6 -26t17 -33t36.5 -26t61.5 -11.5q33 0 56.5 7.5t35 19.5t16 20.5t6.5 16.5h-51q-14 -34 -63 -33q-21 0 -36 8t-22 20.5t-10 20.5t-4 16h192v-96h47v29q24 -29 88 -29q42 0 72 21.5
t40 60.5q4 15 4 30q1 52 -33 82t-82 30q-27 0 -49 -10t-31 -20l-9 -11v137h-47zM520 402q-7 -43 22 -62.5t70 -19.5q63 0 92 37v-37h49v139q-1 14 -3.5 23.5t-12 25.5t-33.5 25.5t-60 10.5q-1 -1 -10.5 0.5t-25.5 -2t-31 -8.5t-27.5 -19.5t-15.5 -34.5h51q0 1 0.5 3.5t4 8
t9 10t16.5 7.5t26 3q34 -1 48.5 -19.5t14.5 -44.5h-67q-105 0 -117 -46zM721 544l111 -207l-43 -81h54l149 288h-51l-82 -160l-82 160h-56zM155 512q31 0 48 -16t19 -32l2 -16h-143q0 3 1 7t5.5 15t11.5 19.5t22 15.5t34 7zM398 512q35 1 53.5 -19t20.5 -41l1 -20
q0 -3 -0.5 -8.5t-4.5 -19t-11 -24t-22.5 -19.5t-36.5 -9q-34 0 -52.5 20t-20.5 40l-2 21v8.5t4 18.5t11 23.5t22.5 19t37.5 9.5zM632 416h67q-1 -1 0.5 -7t-3 -16.5t-10.5 -20t-23.5 -16t-41.5 -6.5q-6 0 -14 1t-22.5 10.5t-15.5 26.5q0 25 63 28z" />
    <glyph glyph-name="edge" unicode="&#xeab4;" 
d="M319 614q-24 -15 -46 -33.5t-37 -34t-26.5 -29.5t-16.5 -22l-6 -8q1 7 2.5 18t10 42.5t21.5 60.5t38.5 64.5t59.5 61.5q87 66 199 66q92 0 163 -44q44 -27 68 -52.5t47 -64.5q18 -30 28 -71q3 -13 5.5 -28.5t4 -28t2 -23.5t1.5 -17v-80h-442q1 0 -0.5 -8t3 -21t9 -29
t19.5 -32t34 -29t52.5 -21t74.5 -8q15 0 28 0.5t23 2t18 2.5t16 3t12.5 3.5t11.5 3.5t10 3q8 2 15.5 5t14.5 6.5t13.5 6.5t11.5 6t9 5.5t6 3.5l2 2v-149q-10 -5 -27 -14t-71.5 -23t-110.5 -14q-64 0 -109 15q-92 30 -141 102q-30 43 -41 83q-9 31 -9 80q0 100 60 170
q22 25 50 46t45 29l16 7q-20 -23 -32 -53q-4 -8 -7 -17t-4.5 -16t-2.5 -13t-2 -10v-3h250v8.5t-1.5 21t-5.5 29.5t-14 31.5t-24.5 30t-39.5 21t-57 8.5q-44 0 -93.5 -14.5t-87.5 -37.5z" />
    <glyph glyph-name="edit-solid" unicode="&#xeab5;" 
d="M800 831q-39 0 -67 -28l-324 -323l-2 -10l-22 -112l-10 -47l47 10l122 24l7 7l316 317q28 28 28 67t-28 67t-67 28zM800 769q11 0 22 -11q22 -22 0 -44l-310 -310l-55 -11l11 55l310 310q11 11 22 11zM128 704v-640h640v422l-64 -64v-294h-512v512h294l64 64h-422z" />
    <glyph glyph-name="edit" unicode="&#xeab6;" 
d="M800 831q-39 0 -67 -28l-324 -323l-2 -10l-22 -112l-10 -47l47 10l122 24l7 7l316 317q28 28 28 67t-28 67t-67 28zM800 769q11 0 22 -11q22 -22 0 -44l-310 -310l-55 -11l11 55l310 310q11 11 22 11zM128 704v-640h640v422l-64 -64v-294h-512v512h294l64 64h-422z" />
    <glyph glyph-name="egg-solid" unicode="&#xeab7;" 
d="M512 864q-68 0 -131.5 -45.5t-114.5 -120.5q-49 -71 -77.5 -153.5t-28.5 -160.5q0 -165 102 -262q105 -90 250 -90q151 0 250 90q102 92 102 262q0 78 -28.5 160.5t-77.5 153.5q-51 75 -114.5 120.5t-131.5 45.5zM512 800q30 0 64 -17t66.5 -48t61.5 -73q44 -62 70 -138
t26 -140q0 -142 -83 -214q-79 -74 -205 -74t-205 74q-40 37 -61.5 90.5t-21.5 123.5q0 15 1.5 30.5t4 31t6.5 32t9 32.5t11 32t13.5 31.5t15.5 30.5t16.5 30t18.5 28q44 63 95.5 100.5t96.5 37.5z" />
    <glyph glyph-name="eject-solid" unicode="&#xeab8;" 
d="M512 749l-23 -22l-288 -288l-54 -55h730l-54 55l-288 288zM512 658l210 -210h-420zM128 256v-64h768v64h-768z" />
    <glyph glyph-name="elementor" unicode="&#xeab9;" 
d="M160 800v-704h704v704h-704zM224 736h576v-576h-576v576zM352 608v-320h64v320h-64zM480 608v-64h192v64h-192zM480 480v-64h192v64h-192zM480 352v-64h192v64h-192z" />
    <glyph glyph-name="ellipsis-h-solid" unicode="&#xeaba;" 
d="M192 512q-27 0 -45.5 -18.5t-18.5 -45.5t18.5 -45.5t45.5 -18.5t45.5 18.5t18.5 45.5t-18.5 45.5t-45.5 18.5zM512 512q-27 0 -45.5 -18.5t-18.5 -45.5t18.5 -45.5t45.5 -18.5t45.5 18.5t18.5 45.5t-18.5 45.5t-45.5 18.5zM832 512q-27 0 -45.5 -18.5t-18.5 -45.5
t18.5 -45.5t45.5 -18.5t45.5 18.5t18.5 45.5t-18.5 45.5t-45.5 18.5z" />
    <glyph glyph-name="ellipsis-v-solid" unicode="&#xeabb;" 
d="M512 768q-27 0 -45.5 -18.5t-18.5 -45.5t18.5 -45.5t45.5 -18.5t45.5 18.5t18.5 45.5t-18.5 45.5t-45.5 18.5zM512 512q-27 0 -45.5 -18.5t-18.5 -45.5t18.5 -45.5t45.5 -18.5t45.5 18.5t18.5 45.5t-18.5 45.5t-45.5 18.5zM512 256q-27 0 -45.5 -18.5t-18.5 -45.5
t18.5 -45.5t45.5 -18.5t45.5 18.5t18.5 45.5t-18.5 45.5t-45.5 18.5z" />
    <glyph glyph-name="ello" unicode="&#xeabc;" 
d="M512 864q-172 0 -294 -122t-122 -294t122 -294t294 -122t294 122t122 294t-122 294t-294 122zM512 800q146 0 249 -103t103 -249t-103 -249t-249 -103t-249 103t-103 249t103 249t249 103zM291 416q11 -82 74 -137t147 -55t147 55t74 137h-64q-12 -55 -56 -91.5
t-101 -36.5q-38 0 -71.5 16.5t-55.5 46t-30 65.5h-64z" />
    <glyph glyph-name="ember" unicode="&#xeabd;" 
d="M576 704q-6 0 -13 -2q-12 -5 -21.5 -12t-12.5 -11l-4 -4q-1 -2 -3.5 -6t-9 -17t-12 -27t-11 -35.5t-7.5 -43t-4 -37.5l-16 -128q-17 -15 -32 -16q-7 -1 -9.5 10.5t-0.5 22.5l1 12q0 2 1 7t3 17t3.5 22t2.5 20t1 13q-1 10 -3.5 15t-12.5 7q-6 2 -13.5 -1t-11.5 -8l-4 -4
q-41 -59 -45 -68l-2 -4l-2 3l12 45q6 37 -11 38q-27 1 -45 -29q-32 -51 -33 -57l-2 2q2 7 4 16.5t5 29.5t1.5 26.5t-5.5 9.5t-7.5 2t-3.5 0h-1h-3t-4 -0.5l-4 -1t-4.5 -1.5t-4 -2.5t-2.5 -3.5q-2 -6 -7.5 -27.5t-10.5 -45.5t-6 -35q-45 -32 -75 -32q-13 0 -19.5 4.5
t-7.5 9.5v4q3 1 6.5 2.5t14.5 6.5t19.5 11t20 15.5t16 19.5t8 24t-5.5 28q-17 24 -50 24q-44 -1 -66 -51q-9 -19 -13 -49q-20 -4 -30 5q-5 3 -9 3t-5 -2l-2 -1q-1 -1 -2 -2.5t-3 -6t-3 -8t1 -7t7 -5.5q25 -9 45 -9q6 -28 31 -47q7 -4 15.5 -7t17.5 -3t18 1t16.5 3t13.5 4
t9.5 3l3.5 1l26 14q1 -23 19 -26q15 -3 25.5 9t32.5 66q19 38 21 36l2 1q-2 -8 -4 -19.5t-5.5 -40.5t0.5 -33q1 -4 3 -7.5t5 -5l6 -3t6 -2t5 -0.5h3h2q1 0 3.5 0.5t9 8.5t11.5 24.5t12.5 35.5t13.5 31l5 11h3q-9 -75 5 -99q6 -11 18 -13t22 1l9 3q25 13 29 16l9 -6t25 -10
t37 -4q26 5 49 11t36.5 11t23.5 9.5t14 6.5l4 3q0 -1 0.5 -2.5t3.5 -5.5t6 -7.5t8.5 -8.5t12 -8.5t15.5 -6t19 -3.5q12 -1 23 0t19.5 3.5t16 6t13 7t9 6t5.5 4.5l2 2q0 -21 20 -29q5 -2 10.5 0.5t9.5 8.5t7 12t4 10l2 4l33 90h3v-7t2.5 -14.5t5.5 -19t10 -16.5t16 -11
q15 -4 33.5 1.5t30.5 12.5l11 8q2 0 3.5 1.5t4 7t1.5 13.5q-2 17 -17 11q-1 -1 -3 -2.5t-7.5 -4.5t-11 -5.5t-12.5 -4t-13 -0.5q-10 1 -13.5 13t-2.5 23l1 12q5 44 -8 47q-6 2 -13.5 -1t-11.5 -6l-4 -4q-20 -20 -29 -47l-3 -1q3 48 0 59q-2 4 -15 3t-16 -8
q-4 -11 -13.5 -48.5t-10.5 -55.5q-37 -31 -69 -36q-14 -2 -24 1.5t-13 8.5l-3 5q4 0 9.5 1.5t20 8t25.5 15.5t19.5 24.5t7.5 34.5q-1 24 -12 35.5t-25.5 11.5t-25.5 -3t-15 -6q-1 0 -6.5 -3.5t-9.5 -7t-10.5 -10.5t-11.5 -15t-10 -21.5t-8 -28.5l-1 -12q-4 -2 -10 -6
t-20.5 -11.5t-22.5 -10.5l5 10t9 23t6.5 32.5t-7 32.5t-25.5 28q-22 13 -43 -8q5 6 10 14q25 35 41 76t8 79q-4 15 -9 24t-11 12.5t-14 3.5zM567 662q1 0 2.5 -1.5t2.5 -3.5t1 -6q7 -34 -56 -142l-8 -13q0 5 2 13q2 15 8.5 40.5t11.5 42.5l4 18q1 1 1.5 3t3 7.5t5 10.5
l5.5 11t6 10t6 7t5 3zM140 476q3 -1 5 -3q10 -7 6 -22t-20 -25q-10 -7 -18 -10t-11 -3l-3 1q1 30 15 47t26 15zM740 473q5 -1 9 -5q2 -2 4 -5t1.5 -13.5t-8 -21t-18 -16t-17.5 -5.5l-6 -1q-5 17 13 48q11 20 22 19zM554 466l12 -4l2.5 -2.5t5 -7.5t5 -13.5t0.5 -20.5t-7 -27
q-9 -23 -26.5 -30.5t-29.5 -3.5l-13 3q-6 19 10 70q7 22 18 29.5t23 6.5z" />
    <glyph glyph-name="empire" unicode="&#xeabe;" 
d="M883 547q-27 100 -99 173q-73 72 -173 99q-48 13 -99 13t-100 -13q-99 -27 -172 -99q-73 -74 -99 -173q-13 -48 -13 -99t13 -99q26 -99 99 -172t173 -100q48 -13 99 -13t99 13q99 26 172 99t100 172q13 50 13 100q0 51 -13 99zM525 789q38 -1 75 -11q88 -24 153 -89
q26 -26 46 -57l-14 -8q-18 29 -43 54l-29 -29q-54 55 -127 74l10 39q-34 10 -71 11v16zM627 448q0 -15 -4 -30l118 -32q-16 -61 -61 -106l-86 86q-23 -21 -52 -29l31 -118q-30 -8 -61 -8t-62 8l32 118q-30 8 -52 30l-86 -87q-45 45 -61 107l118 31q-4 15 -4 30t4 30l-118 31
q16 62 61 107l86 -87q22 22 52 30l-32 118q31 8 62 8t61 -8l-31 -118q30 -8 52 -29l86 86q45 -45 61 -106l-118 -32q4 -15 4 -30zM271 689q65 65 153 89q34 9 69 11v-16q-33 -2 -65 -11l10 -39q-73 -20 -128 -74l-28 29q-25 -24 -43 -54l-14 8q19 31 46 57zM209 291
q-17 33 -27 69q-11 43 -11 88t11 88q10 36 27 69l13 -8q-15 -31 -24 -65l39 -10q-10 -36 -10 -74t10 -74l-39 -10q9 -34 24 -65zM493 107q-35 2 -69 11q-89 24 -154 89q-25 26 -45 57l13 8q20 -30 44 -54l28 29q54 -54 128 -74l-10 -39q32 -9 65 -11v-16zM753 207
q-64 -65 -153 -89q-37 -10 -75 -11v16q35 1 71 11l-10 39q73 19 127 74l29 -29q25 25 43 54l14 -8q-20 -32 -46 -57zM815 291l-13 8q15 31 24 65l-39 10q10 37 10 74q0 38 -10 74l39 10q-9 34 -24 65l13 8q17 -33 27 -69q11 -43 11 -88t-11 -88q-10 -35 -27 -69z" />
    <glyph glyph-name="envelope-open-solid" unicode="&#xeabf;" 
d="M512 864l-17 -11l-399 -260v-561h832v561l-15 10l-384 250zM512 788l326 -212l-326 -211l-326 211zM160 517l352 -228l352 228v-421h-704v421z" />
    <glyph glyph-name="envelope-open-text-solid" unicode="&#xeac0;" 
d="M320 800v-61l-192 -125v-518h768v518l-192 125v61h-384zM384 736h256v-246l-128 -83l-128 83v246zM416 672v-64h192v64h-192zM320 663v-131l-101 65zM704 663l101 -66l-101 -65v131zM416 576v-64h192v64h-192zM192 538l320 -207l320 207v-378h-640v378z" />
    <glyph glyph-name="envelope-open" unicode="&#xeac1;" 
d="M512 864l-17 -11l-399 -260v-561h832v561l-15 10l-384 250zM512 788l326 -212l-326 -211l-326 211zM160 517l352 -228l352 228v-421h-704v421z" />
    <glyph glyph-name="envelope-solid" unicode="&#xeac2;" 
d="M96 704v-576h832v576h-832zM234 640h556l-278 -185zM160 612l334 -223l18 -11l18 11l334 223v-420h-704v420z" />
    <glyph glyph-name="envelope-square-solid" unicode="&#xeac3;" 
d="M160 800v-704h704v704h-704zM224 736h576v-576h-576v576zM288 640v-384h448v384h-448zM378 576h268l-134 -89zM352 516l142 -95l18 -11l18 11l142 95v-196h-320v196z" />
    <glyph glyph-name="envelope" unicode="&#xeac4;" 
d="M96 704v-576h832v576h-832zM234 640h556l-278 -185zM160 612l334 -223l18 -11l18 11l334 223v-420h-704v420z" />
    <glyph glyph-name="envira" unicode="&#xeac5;" 
d="M160 800q17 -60 35 -130.5t27.5 -112t24.5 -89t31 -79t41.5 -64t61.5 -59.5q34 -26 72.5 -42.5t68 -23t67 -6.5t56 2t49.5 7q7 1 10 2l109 -109h64l-128 127q0 9 6 47t10.5 76.5t-1 92.5t-21.5 102t-59 96.5t-107.5 83.5t-171.5 57t-245 22zM259 736q7 -1 33 -13
q27 -12 50.5 -27.5t40.5 -28.5t35 -34t28 -33t25.5 -38t21 -36t21.5 -40q11 -20 24 -41.5t28 -45.5t30 -44t30 -37t28 -27q11 -7 31 -21q19 -13 19 -14q-1 -2 -59 23q-36 15 -69.5 43t-62 65.5t-48.5 70t-42 72.5q-18 33 -23 42t-21.5 36t-27 39.5t-29 30.5t-38.5 32l-25 21
q-6 5 0 5z" />
    <glyph glyph-name="equals-solid" unicode="&#xeac6;" 
d="M160 576v-64h704v64h-704zM160 384v-64h704v64h-704z" />
    <glyph glyph-name="eraser-solid" unicode="&#xeac7;" 
d="M605 829q-43 0 -73 -28l-1 -1l-374 -371q-29 -29 -29.5 -70.5t27.5 -72.5l2 -1l192 -192q29 -29 70.5 -29.5t72.5 28.5l372 372q30 30 31 72.5t-28 71.5l-192 192q-29 29 -70 29zM604 764q17 0 26 -9l192 -192q10 -9 9.5 -25.5t-12.5 -28.5l-161 -161l-245 245l163 162
q11 9 28 9zM367 547l245 -245l-164 -164q-13 -10 -29 -9.5t-25 9.5l-191 190l-1 2q-10 13 -9.5 29t9.5 25z" />
    <glyph glyph-name="erlang" unicode="&#xeac8;" 
d="M64 736v-576h138q-106 137 -106 320q0 147 98 256h-130zM512 736q-9 0 -16.5 -1t-15.5 -3q-28 -7 -49.5 -25t-34 -44t-12.5 -55h256q0 53 -37.5 90.5t-90.5 37.5zM821 736q75 -116 75 -256h-512q0 -86 24.5 -154t71.5 -103q15 -11 32 -19q30 -12 64 -12q70 0 129.5 39.5
t92.5 105.5l115 -57q-34 -68 -88 -120h135v576h-139z" />
    <glyph glyph-name="ethereum" unicode="&#xeac9;" 
d="M478 864l-256 -402l290 -142l286 142l-252 402h-68zM480 748v-140l-125 -56zM544 746l122 -194l-122 56v138zM480 538v-131l-139 68zM544 537l136 -62l-136 -68v130zM224 400v-81l254 -283h68l254 283v81l-288 -148zM369 254l111 -58v-67zM655 254l-111 -125v67z" />
    <glyph glyph-name="ethernet-solid" unicode="&#xeaca;" 
d="M160 800v-704h704v704h-704zM224 736h576v-576h-576v576zM448 608v-96h-96v-224h64v64h64v-64h64v64h64v-64h64v224h-96v96h-128z" />
    <glyph glyph-name="etsy" unicode="&#xeacb;" 
d="M767 800q-164 -19 -570 -6v-40q8 -2 20.5 -4t18.5 -3t15 -3t12.5 -3.5t9 -3.5t7.5 -4.5t5 -6t4 -7.5t2 -9.5t1 -11.5q9 -180 0 -507q0 -7 -0.5 -12.5t-3.5 -10l-5 -7.5t-7.5 -6t-9.5 -4.5t-13.5 -3.5t-15 -3t-19 -3.5t-21.5 -4.5v-40q308 10 579 0q4 56 22 192h-40
q-2 -7 -8 -19q-12 -29 -17.5 -41.5t-15.5 -30t-18 -24t-21 -14.5t-29.5 -10t-38.5 -2h-140q-70 0 -70 60v218h54t40 -0.5t25.5 -1t14.5 -1.5h4q14 0 24.5 -5.5t16.5 -11.5t12 -23t8.5 -26.5t8.5 -35.5h32q-1 38 -2 70t-1.5 41.5t-0.5 29.5t1 42.5t3 72.5h-32
q-16 -70 -25.5 -85t-43.5 -16q-2 0 -5.5 -0.5t-17 -1.5t-28.5 -1.5t-38.5 -0.5h-49.5v257q0 9 3 12t14 3h215q15 0 27 -7.5t19.5 -17t14.5 -28.5t10.5 -31.5t9.5 -36.5q2 -9 4 -14h38q7 137 12 192z" />
    </font>
</defs>
</svg>
