<?xml version="1.0" standalone="no"?>
<!DOCTYPE svg PUBLIC "-//W3C//DTD SVG 1.1//EN" "http://www.w3.org/Graphics/SVG/1.1/DTD/svg11.dtd" >
<svg xmlns="http://www.w3.org/2000/svg" xmlns:xlink="http://www.w3.org/1999/xlink" version="1.1">
<metadata>
Created by FontForge 20201107 at Sat Jul 31 04:32:51 2021
 By Unknown
</metadata>
<defs>
<font id="jkiticon" horiz-adv-x="1024" >
  <font-face 
    font-family="jkiticon"
    font-weight="400"
    font-stretch="normal"
    units-per-em="1024"
    panose-1="2 0 5 3 0 0 0 0 0 0"
    ascent="960"
    descent="-64"
    bbox="-0.305085 -64 1024 920"
    underline-thickness="0"
    underline-position="0"
    unicode-range="U+E900-EA2A"
  />
<missing-glyph 
 />
    <glyph glyph-name=".notdef" 
 />
    <glyph glyph-name="500px" unicode="&#xe900;" 
d="M838 549q-21 0 -42 -5.5t-37.5 -14.5t-31.5 -19.5t-25.5 -21.5t-18.5 -19.5t-12.5 -14.5t-5.5 -6t-5.5 6t-12 14.5t-18.5 19.5t-25.5 21.5t-31 19.5t-38 14.5t-43.5 5.5q-30 0 -55 -10t-40 -25t-25 -30t-15.5 -25.5t-9.5 -1.5t-13 21t-21.5 24t-34 20.5t-47.5 8.5
q-18 0 -32.5 -2.5t-23.5 -6.5t-16 -8t-10.5 -8t-6 -6.5t-3.5 -2.5q6 37 17 103h185v72h-250l-43 -242h81q2 3 6.5 9t22 15.5t39.5 9.5q24 0 42 -11.5t27.5 -29.5t9.5 -40q0 -33 -23 -61t-56 -28q-32 0 -52 22t-20 45h-91q0 -10 3 -24t13.5 -34.5t27 -37.5t48 -29t71.5 -12
q24 0 45.5 5t36.5 12.5t27.5 17.5t21 20t14 19t7.5 15t2 9q0 -3 4 -10.5t11.5 -19t19.5 -23t27 -22t36 -17t44 -6.5q31 0 59.5 10t47.5 24.5t33.5 28.5t23 24.5t9.5 10.5t10.5 -10.5t25 -24.5t35 -28.5t47 -24.5t55.5 -10q48 0 84 26t52.5 62t16.5 76q0 39 -15.5 74.5
t-51 61t-86.5 25.5zM611 386q-1 -2 -7 -8.5t-18.5 -18.5t-27 -22.5t-32.5 -18.5t-34 -8q-20 0 -34.5 9t-21.5 22.5t-9.5 24.5t-2.5 20t2.5 20t9.5 24.5t21.5 22.5t34.5 9q25 0 56 -20t45 -35t18 -21zM907 386q0 -9 -2.5 -20t-9.5 -24.5t-21.5 -22.5t-34.5 -9
q-16 0 -34.5 8.5t-31.5 17.5t-27.5 23t-18 18t-7.5 9q4 5 7.5 9t18 17.5t27.5 23t31.5 18t34.5 8.5q20 0 34.5 -9t21.5 -22.5t9.5 -24.5t2.5 -20z" />
    <glyph glyph-name="accessible-icon" unicode="&#xe901;" 
d="M768 832q-39 0 -67.5 -28.5t-28.5 -67.5t28.5 -67.5t67.5 -28.5t67.5 28.5t28.5 67.5t-28.5 67.5t-67.5 28.5zM768 768q14 0 23 -9t9 -23t-9 -23t-23 -9t-23 9t-9 23t9 23t23 9zM594 671l-115 -13q-27 -3 -44 -28l-1 1l-1 -2l-74 -98l50 -38l76 99l2 2l70 8l-54 -123
q-53 -2 -99 -27.5t-76 -67.5h89q43 32 95 32q66 0 113 -47t47 -113t-47 -113t-113 -47q-79 0 -127 64h-75q27 -58 81.5 -93t120.5 -35q93 0 158.5 65.5t65.5 158.5q0 11 -3 32h63l-49 -184l62 -16l53 199l2 7l-1 8q-5 22 -22.5 36t-40.5 14h-86q-13 28 -36 53l52 109l1 3
q12 33 -1 66.5t-44 50.5l-54 29q-19 10 -38 8zM623 596l33 -18q24 -13 15 -39l-44 -91q-26 15 -58 24zM224 352v-64h224v64h-224zM128 256v-64h416v64h-416z" />
    <glyph glyph-name="accusoft" unicode="&#xe902;" 
d="M600 768q-159 0 -207 -1q-39 0 -41 -8q-1 -6 9 -18q6 -7 201 -228q206 -233 211 -238q14 -17 27 -19t24 5q5 1 98.5 37t96.5 37q14 7 -12 36q-12 12 -344 378q-6 7 -10.5 10.5t-12 5.5t-15.5 2.5t-25 0.5zM431 544q-20 -3 -40 -24q-6 -5 -102.5 -92.5t-190 -172
t-94.5 -86.5q-8 -10 -1 -10q5 0 26 8q1 0 152 47q0 1 1 1q0 3 -0.5 13.5t-0.5 19t-1 9.5q-1 9 11 14l177 62q1 1 72 56.5t72 56.5v2zM505 320q-15 -1 -24 -5q-4 -1 -122.5 -37t-120.5 -37q-2 0 -5.5 -1.5t-5 -2t-4 -2t-3.5 -3t-1 -2.5q1 -4 8 -6q3 -1 125 -30t246 -58.5
t129 -30.5q4 -1 10 -2t11 -2t11.5 -2.5t11.5 -2t11.5 -0.5t11.5 0.5t10 2t10 3.5q1 1 16 11t37.5 24.5t48.5 31.5t48.5 31.5t38 24t15.5 10.5q13 9 -3 12q-5 1 -26 4l-35 5l-191 -76q-28 -12 -59 22l-93 104q-96 14 -106 14z" />
    <glyph glyph-name="acquisitions-incorporated" unicode="&#xe903;" 
d="M232 864q-9 0 -8 -9q1 -5 2.5 -18t8.5 -55q53 0 99 -0.5t71 -0.5q7 0 14.5 -0.5t16 -3t15.5 -6.5t11.5 -10.5t5.5 -15.5q1 -1 0 -5t-0.5 -5t-1 -5.5t-2.5 -6.5t-3.5 -9.5t-5 -12.5t-7 -16t-9 -21.5t-12 -27t-14.5 -33.5q-30 -71 -51 -119.5t-28.5 -66t-15.5 -36
t-17 -39.5q-4 -9 -13 -9q-25 1 -42 0q-8 0 -9 -5q-2 -8 -5 -40h184v44q-50 0 -53 5q5 10 13.5 30t13.5 29q13 -3 41 -9l42 -9q7 -2 7 -12q0 -36 1 -209q0 -12 -7 -22.5t-18 -14.5q-7 -3 -15 -3.5t-53 -1t-139 0.5q-4 0 -6.5 -1.5t-4 -3.5t-1.5 -6q-6 -47 -9 -63v-5t1.5 -3
t3 -1.5t4.5 -0.5h563q-1 5 -1.5 9.5t-1.5 9t-1.5 9l-1 9t-1.5 9t-1.5 8.5t-1 8.5t-1.5 8.5q-2 10 -4 11.5t-12 1.5q-173 -1 -195 4q-15 2 -24.5 12t-10.5 26v26q0 117 -1 183q-1 10 10 12q7 2 21 5t26 6t21 5q10 3 14 -5q2 -5 4.5 -10.5t4.5 -10.5t4.5 -9.5t4.5 -10t4 -10.5
q3 -7 -5 -7h-43v-44h186q-1 4 -2 11.5t-2 11.5t-1.5 10.5t-1.5 11.5h-34q-23 2 -34 19.5t-54 116.5q-31 72 -52 122q-50 110 -61 145q-6 16 4 28.5t27 14.5q19 2 94 3q24 1 103 1q7 0 7 7q2 9 4 26t3 22t2.5 14.5t1.5 11.5h-566zM506 677q7 -2 9.5 -1.5t4 1.5t2.5 0
q5 -12 11.5 -31t11.5 -36t11 -36t11 -31l6 -14t5 -13.5t5.5 -14t5.5 -13.5t5.5 -14.5t5.5 -13.5q-3 -2 -6 -3t-28 -8t-38 -11q-16 -6 -31 0q-6 1 -30 8.5t-37 11.5q-5 2 -9 5q64 162 85 214z" />
    <glyph glyph-name="ad-solid" unicode="&#xe904;" 
d="M64 736v-576h896v576h-896zM128 672h768v-448h-768v448zM375 608l-7 -22l-79 -247l-1 -5v-46h64v32h96v-32h64v46l-1 5l-79 247l-7 22h-50zM672 608v-128h-48q-33 0 -56.5 -23.5t-23.5 -56.5v-32q0 -33 23.5 -56.5t56.5 -23.5h112v320h-64zM400 475l29 -91h-58zM624 416
h48v-64h-48q-16 0 -16 16v32q0 16 16 16z" />
    <glyph glyph-name="address-book-solid" unicode="&#xe905;" 
d="M192 832v-160h-32v-64h96v160h512v-640h-512v96h-64v-160h640v768h-640zM512 640q-53 0 -90.5 -37.5t-37.5 -90.5t39 -91q-33 -22 -52 -57.5t-19 -75.5h64q0 40 28 68t68 28t68 -28t28 -68h64q0 40 -19 75.5t-52 57.5q39 38 39 91t-37.5 90.5t-90.5 37.5zM192 576v-64
h-32v-64h96v128h-64zM512 576q27 0 45.5 -18.5t18.5 -45.5t-18.5 -45.5t-45.5 -18.5t-45.5 18.5t-18.5 45.5t18.5 45.5t45.5 18.5zM192 416v-64h-32v-64h96v128h-64z" />
    <glyph glyph-name="address-book" unicode="&#xe906;" 
d="M192 832v-160h-32v-64h96v160h512v-640h-512v96h-64v-160h640v768h-640zM512 640q-53 0 -90.5 -37.5t-37.5 -90.5t39 -91q-33 -22 -52 -57.5t-19 -75.5h64q0 40 28 68t68 28t68 -28t28 -68h64q0 40 -19 75.5t-52 57.5q39 38 39 91t-37.5 90.5t-90.5 37.5zM192 576v-64
h-32v-64h96v128h-64zM512 576q27 0 45.5 -18.5t18.5 -45.5t-18.5 -45.5t-45.5 -18.5t-45.5 18.5t-18.5 45.5t18.5 45.5t45.5 18.5zM192 416v-64h-32v-64h96v128h-64z" />
    <glyph glyph-name="address-card-solid" unicode="&#xe907;" 
d="M96 768v-640h832v640h-832zM160 704h704v-512h-109q-1 2 -2 7t-3 7q-18 18 -46 18t-46 -18q-2 -2 -3 -7t-2 -7h-282q-1 2 -2 7t-3 7q-18 18 -46 18t-46 -18q-2 -2 -3 -7t-2 -7h-109v512zM384 640q-53 0 -90.5 -37.5t-37.5 -90.5t39 -91q-33 -22 -52 -57.5t-19 -75.5h64
q0 40 28 68t68 28t68 -28t28 -68h64q0 40 -19 75.5t-52 57.5q39 38 39 91t-37.5 90.5t-90.5 37.5zM384 576q27 0 45.5 -18.5t18.5 -45.5t-18.5 -45.5t-45.5 -18.5t-45.5 18.5t-18.5 45.5t18.5 45.5t45.5 18.5zM608 544v-64h192v64h-192zM608 416v-64h192v64h-192z" />
    <glyph glyph-name="address-card" unicode="&#xe908;" 
d="M96 768v-640h832v640h-832zM160 704h704v-512h-109q-1 2 -2 7t-3 7q-18 18 -46 18t-46 -18q-2 -2 -3 -7t-2 -7h-282q-1 2 -2 7t-3 7q-18 18 -46 18t-46 -18q-2 -2 -3 -7t-2 -7h-109v512zM384 640q-53 0 -90.5 -37.5t-37.5 -90.5t39 -91q-33 -22 -52 -57.5t-19 -75.5h64
q0 40 28 68t68 28t68 -28t28 -68h64q0 40 -19 75.5t-52 57.5q39 38 39 91t-37.5 90.5t-90.5 37.5zM384 576q27 0 45.5 -18.5t18.5 -45.5t-18.5 -45.5t-45.5 -18.5t-45.5 18.5t-18.5 45.5t18.5 45.5t45.5 18.5zM608 544v-64h192v64h-192zM608 416v-64h192v64h-192z" />
    <glyph glyph-name="adjust-solid" unicode="&#xe909;" 
d="M512 832q-159 0 -271.5 -112.5t-112.5 -271.5t112.5 -271.5t271.5 -112.5t271.5 112.5t112.5 271.5t-112.5 271.5t-271.5 112.5zM512 768v-640q-133 0 -226.5 93.5t-93.5 226.5t93.5 226.5t226.5 93.5z" />
    <glyph glyph-name="adn" unicode="&#xe90a;" 
d="M512 832q-159 0 -271.5 -112.5t-112.5 -271.5t112.5 -271.5t271.5 -112.5t271.5 112.5t112.5 271.5t-112.5 271.5t-271.5 112.5zM512 768q133 0 226.5 -93.5t93.5 -226.5t-93.5 -226.5t-226.5 -93.5t-226.5 93.5t-93.5 226.5t93.5 226.5t226.5 93.5zM512 642l-211 -317
h51l49 74h222l50 -74h51zM512 565l91 -136h-182z" />
    <glyph glyph-name="adobe" unicode="&#xe90b;" 
d="M128 768v-640l285 640h-285zM611 768l285 -640v640h-285zM512 531l-125 -275h131l51 -128h122z" />
    <glyph glyph-name="adversal" unicode="&#xe90c;" 
d="M171 800q-18 0 -27 -4t-12.5 -13t-3.5 -26v-586q0 -26 8.5 -34.5t34.5 -8.5h680q28 0 36.5 8.5t8.5 36.5v582q0 27 -8.5 36t-36.5 9h-680zM798 733h14q7 1 11.5 -1.5t6.5 -7t2 -12.5v-428q0 -20 -12 -20q-5 0 -18 -2t-21 0t-14 10q-3 5 -5.5 6.5t-4 1.5t-4.5 -2.5
t-4 -3.5q-30 -16 -63 -17.5t-63.5 12.5t-54 47.5t-31.5 82.5q-14 74 23 147q8 16 23 31.5t39 29t60.5 10.5t77.5 -26v104v22.5t5 10.5t10.5 5h22.5zM347 618q9 1 18.5 0.5t18.5 -2t18.5 -4t18.5 -5.5t19 -6q12 -6 20.5 -13t13 -18t7 -21.5t2.5 -27.5t-0.5 -31t-1.5 -37
t-1 -41q2 -22 0.5 -41t1.5 -44t12 -45q3 -9 -4 -16q-10 -7 -30 -3.5t-28 14.5q-2 1 -3.5 4l-2.5 5q-6 6 -18 -2q-31 -19 -67.5 -25t-68 1.5t-54 30.5t-25.5 57q-3 21 3.5 41.5t20.5 36.5t34 26q22 12 63.5 17.5t69 11t28.5 17t-3 22t-14 18.5q-15 10 -33 13t-34 -1.5
t-30 -16.5t-20 -30q-4 -11 -10.5 -12.5t-15.5 0.5q-22 4 -33 8q-12 5 -14.5 15t2.5 22t13.5 23.5t18 20.5t17.5 14q44 23 91 24zM682 544q-39 -2 -57 -38q-35 -71 0 -144q12 -27 38 -37.5t53 1t40 43.5q6 14 8.5 38.5t-2 55.5t-18.5 50q-11 16 -28 24t-34 7zM412 416
q-3 0 -7 -1q-102 -19 -106 -20q-30 -7 -29 -36q0 -6 1.5 -10.5t4 -8t5 -6.5t6.5 -5l7 -3.5t7.5 -2.5t6.5 -1.5t6 -1t5 -0.5q44 0 71 23.5t26 58.5q-1 12 -4 14zM201 224h6t5.5 -0.5t5.5 -0.5q325 1 589 0q1 0 7.5 0.5t9 0t5.5 -4t3 -11.5q0 -6 -1.5 -10t-5 -5t-6.5 -1
t-7.5 0.5t-6.5 0.5h-586q-2 0 -9 -0.5t-9.5 0t-5.5 4.5t-3 12q0 13 9 15z" />
    <glyph glyph-name="affiliatetheme" unicode="&#xe90d;" 
d="M387 800q-45 0 -107.5 -43.5t-118.5 -115.5q-69 -88 -90 -170t18 -109t116 16.5t146 132.5q22 29 40.5 59t30.5 58t19 53.5t7 46.5t-6 37t-19 25q-14 10 -36 10zM960 608q-36 -60 -80.5 -109t-91.5 -81.5t-94 -50t-91 -15.5t-79 24q-60 36 -76 136q-49 -90 -135 -160
t-185 -96q64 -76 159 -118t203 -42q95 0 182 37.5t149.5 101t100 151t37.5 184.5q1 37 1 38z" />
    <glyph glyph-name="air-freshener-solid" unicode="&#xe90e;" 
d="M512 896q-40 0 -68 -28t-28 -68q0 -41 30 -69l-156 -219h66l-128 -192h252v-64h-192v-192h448v192h-192v64h252l-128 192h66l-156 219q30 28 30 69q0 40 -28 68t-68 28zM512 832q13 0 22.5 -9.5t9.5 -22.5q0 -20 -19 -29l-2 -1q-3 -1 -5.5 -1.5t-5.5 -0.5q-5 0 -11 2
l-2 1q-19 9 -19 29q0 13 9.5 22.5t22.5 9.5zM506 704h2h3h1h6l92 -128h-62l128 -192h-328l128 192h-62zM352 192h320v-64h-320v64z" />
    <glyph glyph-name="airbnb" unicode="&#xe90f;" 
d="M513 832q-20 0 -38 -5.5t-34.5 -16.5t-30.5 -27q-11 -14 -27 -43l-1 -3q-9 -18 -18 -33l-1 -3q-46 -92 -86.5 -176t-77.5 -165l-3 -7q-3 -7 -6 -13l-2 -6l-6 -12q-7 -16 -11 -28q-15 -44 -9 -86q6 -44 33.5 -79t67.5 -52q31 -13 64 -13q10 0 20 2q41 5 77 26q42 23 87 72
l1 -2l1 1q43 -46 85 -71q18 -10 37.5 -17t38.5 -9q12 -2 22 -2q16 0 32 3t31 10q40 16 67.5 50.5t33.5 78.5l1 6q8 37 -7 81q-1 2 -2 4.5t-2 4.5q-1 5 -3 9t-4 8.5l-6 13.5l-5 12q-1 1 -2 3.5t-1.5 4t-1.5 3.5l-2 4q-27 58 -54 115.5t-54 113.5t-55 110l-3 6q-4 7 -8.5 15.5
t-9.5 19.5l-2 4q-3 5 -5 8.5t-5 8.5t-6.5 9.5t-6.5 9.5l-2 2q-39 50 -101 50zM512 767.5q31 0.5 50 -23.5l4 -4q1 -2 2.5 -4t3.5 -4.5t3 -4t2.5 -4.5l2 -4t3.5 -5l1 -4q1 -1 2.5 -3.5t2 -3.5t1.5 -3.5t1.5 -4t2 -3.5t2 -3.5t1.5 -3.5t2 -3.5t2 -3.5t1 -3l3 -5
q83 -163 161 -336l5 -10l1 -2t1 -3l6 -13q3 -7 5 -11q4 -10 7 -17q2 -5 2 -6q10 -29 5 -50l-1 -4q-2 -14 -7 -27t-13.5 -23.5t-19.5 -18.5t-24 -14q-16 -7 -37 -7q-6 0 -13 1q-5 1 -10.5 2t-11 2.5t-11 4t-10.5 5t-10 5.5q-13 7 -25.5 17t-25.5 22t-27 27l2 3q66 86 81 156
q8 34 3 63q-3 27 -19 52q-17 26 -45 41t-62 15q-32 0 -60 -14.5t-46 -40.5l-2 -3q-15 -24 -18 -50q-5 -30 2 -63q15 -70 82 -156l1 -2q-42 -47 -79 -67q-25 -15 -53 -19q-7 -1 -12 -1q-20 0 -39 8q-25 10 -42 32t-21 49t6 55q4 10 10 24q1 3 5 11l3 7q2 5 5 12l4 9
q71 156 163 338l1 3q6 12 17 33l1 1q12 23 20 32q21 25 52 25.5zM512 480q11 0 21.5 -3t18.5 -9t13 -15q3 -4 5 -8.5t3 -9t2 -8.5q3 -18 -2 -41q-11 -51 -61 -118q-50 67 -61 119q-5 21 -2 40q2 14 10 26l1 1q18 26 52 26z" />
    <glyph glyph-name="algolia" unicode="&#xe910;" 
d="M160 800v-704h704v704h-704zM224 736h576v-576h-576v576zM480 704q-13 0 -22.5 -9.5t-9.5 -22.5v-41q31 9 64 9q11 0 22 -1t21.5 -3t20.5 -5v41q0 13 -9.5 22.5t-22.5 9.5h-64zM343 640q-3 0 -5.5 -0.5t-4.5 -1t-4.5 -2t-4.5 -3t-4 -2.5l-23 -23q-9 -9 -9 -22.5t9 -22.5
l27 -26q26 41 67 67l-26 27q-9 9 -22 9zM512 608q-80 0 -136 -56t-56 -136t56 -136t136 -56t136 56t56 136t-56 136t-136 56zM512 544q53 0 90.5 -37.5t37.5 -90.5t-37.5 -90.5t-90.5 -37.5t-90.5 37.5t-37.5 90.5t37.5 90.5t90.5 37.5zM512 512v-96l83 47q-13 23 -35 36
t-48 13z" />
    <glyph glyph-name="align-center-solid" unicode="&#xe911;" 
d="M96 736v-64h832v64h-832zM224 608v-64h576v64h-576zM96 480v-64h832v64h-832zM224 352v-64h576v64h-576zM96 224v-64h832v64h-832z" />
    <glyph glyph-name="align-justify-solid" unicode="&#xe912;" 
d="M96 736v-64h832v64h-832zM96 608v-64h832v64h-832zM96 480v-64h832v64h-832zM96 352v-64h832v64h-832zM96 224v-64h832v64h-832z" />
    <glyph glyph-name="align-left-solid" unicode="&#xe913;" 
d="M96 736v-64h832v64h-832zM96 608v-64h576v64h-576zM96 480v-64h832v64h-832zM96 352v-64h576v64h-576zM96 224v-64h832v64h-832z" />
    <glyph glyph-name="align-right-solid" unicode="&#xe914;" 
d="M96 736v-64h832v64h-832zM352 608v-64h576v64h-576zM96 480v-64h832v64h-832zM352 352v-64h576v64h-576zM96 224v-64h832v64h-832z" />
    <glyph glyph-name="alipay" unicode="&#xe915;" 
d="M160 800v-704h704v704h-704zM224 736h576v-576h-576v576zM480 672h64v-160h-64v160zM320 608h352v-32h-352v32zM624 512h-272v32h288zM583 409q-1 1 -4 3l-4.5 3l-1.5 1v2l-2 4q0 2 -0.5 4t-1.5 4q-1 1 -10 7q-11 6 -23 11q-11 6 -23 10t-24 7q-49 14 -98 15h-25
q-17 -1 -27 -4q-14 -4 -26 -11t-22 -16q-41 -39 -33 -101q3 -28 22.5 -51.5t46.5 -32.5q27 -10 55 -7h8.5t9 0.5t8.5 1.5q16 2 25 5q52 14 92 49q4 4 8 7.5t7.5 7t7 7.5t6.5 8t7 8q12 17 14 21q5 10 5 12q0 1 1 3l1 4v4q0 1 1 2q1 3 1 6.5t-1 5.5zM488 357
q-8 -7 -15.5 -13.5t-16 -12t-17.5 -10.5t-19 -9q-2 -1 -4.5 -2t-5.5 -1.5t-5 -1t-5 -1.5l-10 -2t-11 -2q-21 -4 -39 1q-7 1 -12.5 3.5t-11 6t-10 8t-8 9.5t-6 11.5t-3.5 12.5q-4 19 4 38.5t23 30.5q14 10 32 13q6 1 18 1l22 -1q34 -4 85 -19q10 -4 20 -7.5t21 -7.5l6 -3
q2 -1 3 -1q0 -1 -1 -1q-4 -7 -7 -10q-8 -10 -27 -30zM580 432l273 -97l-45 -85l-249 135zM640 544q-8 -87 -51 -150l-49 28q35 49 42 122h58z" />
    <glyph glyph-name="allergies-solid" unicode="&#xe916;" 
d="M512 896q-33 0 -58.5 -20.5t-33.5 -51.5q-19 8 -36 8q-39 0 -67.5 -28.5t-28.5 -67.5v-344l-28 28q-28 28 -68 28t-68 -28t-28 -68t28 -68l217 -217q67 -67 151 -67h148q93 0 158.5 65.5t65.5 158.5v384q0 39 -28.5 67.5t-67.5 28.5q-15 0 -32 -6v38q0 39 -28.5 67.5
t-67.5 28.5q-17 0 -36 -8q-8 31 -33.5 51.5t-58.5 20.5zM512 832q14 0 23 -9t9 -23v-320h64v256q0 14 9 23t23 9t23 -9t9 -23v-256h64v128q0 14 9 23t23 9t23 -9t9 -23v-384q0 -67 -46.5 -113.5t-113.5 -46.5h-148q-56 0 -105 49l-218 216q-10 10 -10 23t10 23t23 10t23 -10
l82 -83l55 -55v499q0 14 9 23t23 9t23 -9t9 -23v-256h64v320q0 14 9 23t23 9zM512 416q-13 0 -22.5 -9.5t-9.5 -22.5t9.5 -22.5t22.5 -9.5t22.5 9.5t9.5 22.5t-9.5 22.5t-22.5 9.5zM704 416q-13 0 -22.5 -9.5t-9.5 -22.5t9.5 -22.5t22.5 -9.5t22.5 9.5t9.5 22.5t-9.5 22.5
t-22.5 9.5zM576 320q-13 0 -22.5 -9.5t-9.5 -22.5t9.5 -22.5t22.5 -9.5t22.5 9.5t9.5 22.5t-9.5 22.5t-22.5 9.5zM448 288q-13 0 -22.5 -9.5t-9.5 -22.5t9.5 -22.5t22.5 -9.5t22.5 9.5t9.5 22.5t-9.5 22.5t-22.5 9.5zM704 288q-13 0 -22.5 -9.5t-9.5 -22.5t9.5 -22.5
t22.5 -9.5t22.5 9.5t9.5 22.5t-9.5 22.5t-22.5 9.5zM576 192q-13 0 -22.5 -9.5t-9.5 -22.5t9.5 -22.5t22.5 -9.5t22.5 9.5t9.5 22.5t-9.5 22.5t-22.5 9.5z" />
    <glyph glyph-name="amazon-pay" unicode="&#xe917;" 
d="M284 704l-7 -1q-33 -4 -58 -23q-2 -2 -11 -8v2q-1 2 -1.5 6t-0.5 6q-2 11 -12 11h-17q-4 0 -6.5 -0.5t-4 -2t-2 -4t-0.5 -6.5v-324q1 -7 8 -8h32q7 0 7 8q1 1 1 4v113l2 -2l1 -1q41 -34 93 -24q45 9 67 54q15 29 16 66q1 45 -13 75q-20 47 -66 56q-2 1 -4 1t-4 0.5
t-4 0.5t-3 1h-13zM533 704q-3 -1 -5 -1q-24 -1 -44 -6q-2 -1 -4 -1.5l-4 -1l-4 -1l-4 -1t-3.5 -1.5t-4 -1.5t-3.5 -1.5q-2 0 -3.5 -1.5t-2.5 -3t-1.5 -3t-0.5 -4.5v-14q0 -11 10 -8q30 7 36 9q32 5 57 2q9 -2 15 -4.5t10 -8.5q8 -10 9 -25v-16v-20v-2h-2q-8 2 -16.5 3.5
t-16.5 2.5l-16 2q-31 1 -51 -6q-15 -5 -26.5 -14.5t-18.5 -23.5q-5 -11 -6.5 -23t0.5 -24q5 -33 33 -48q24 -14 58 -8q17 2 32.5 9t28.5 19q1 0 1.5 0.5t1.5 0.5q0 -2 0.5 -5.5t1 -6t0.5 -5.5q2 -7 9 -8h25q7 0 7 8v163q0 11 -1 20q-3 15 -10 27t-20 19q-4 3 -10 5.5
t-11 3.5t-12 2q-3 1 -8 1.5t-8 0.5h-18zM662 704q-3 0 -4 -2t-1 -5q1 -4 3 -9q9 -22 18 -44.5t18.5 -45.5t17.5 -43t18.5 -46t17.5 -44q4 -9 0 -17q-1 -4 -3 -9t-3.5 -8.5t-3.5 -8.5t-4 -8q-7 -17 -23 -21q-12 -3 -23 -1q-2 0 -6 0.5t-6 0.5q-4 0 -6 -1.5t-2 -5.5v-15
q1 -12 12 -14q13 -3 26 -3q40 -1 60 33q1 2 2.5 4t2.5 4.5l2 5t2.5 4.5t2.5 4.5t2 5.5q58 146 108 274l2 8q1 7 -6 7h-30q-8 -1 -12 -8q0 -1 -1 -3t-1 -3l-53 -153q-11 -30 -12 -34q-1 3 -2 4q-6 18 -14.5 40.5t-15 41t-14.5 41t-15 40.5q-3 10 -9 26q-3 8 -10 8h-12h-11
h-12zM284 665q37 -3 51 -39q4 -12 5.5 -24t1.5 -26q0 -13 -1 -24t-5 -21q-15 -46 -65 -44q-28 1 -57 21q-3 2 -3 5v127q0 1 1 2.5t2 2.5q33 23 70 20zM526 564q5 1 9.5 1t9.5 -1q6 0 11.5 -1t15 -2.5t11.5 -1.5t2.5 -1t0.5 -3v-22v-11v-11q0 -2 -2 -4q-28 -20 -57 -23
q-16 -1 -26 3q-15 5 -19 20t0 30q5 17 25 24q9 3 19 3zM929 320q-56 -1 -92 -26q-6 -4 -5 -8.5t8 -4.5q97 12 109 -3t-25 -107q-2 -6 2 -8t10 3q33 28 48 79t5 63q-4 5 -21 8.5t-39 3.5zM39 288q-6 -1 -7 -6.5t4 -10.5q187 -175 475 -175q67 0 135.5 14t135 42t118.5 67
q12 10 5 21t-21 5q-174 -77 -362 -77q-280 0 -475 118q-4 2 -8 2z" />
    <glyph glyph-name="amazon" unicode="&#xe918;" 
d="M518 832q-42 0 -79.5 -8.5t-72.5 -27t-60 -52.5t-34 -82q-2 -9 3 -15.5t13 -6.5l106 -10q14 0 18 15q1 3 1 5q11 51 64 64q13 3 25 3q42 0 61 -29q4 -5 6.5 -12t4 -12.5t2 -14.5t0.5 -13.5v-14.5v-13v-16q-3 0 -21.5 -2t-24 -2.5t-23 -2.5t-25 -3.5t-23 -3.5t-25 -4.5
t-22.5 -5.5t-23.5 -6.5t-20.5 -7.5q-103 -42 -117 -152q-1 -15 -1 -31q0 -113 85 -155q36 -17 81 -18q60 0 98 17t84 63q2 -1 4 -5l12 -18t11.5 -15t16 -17t20.5 -18q17 -6 26 3q11 10 43 37t43 37q14 8 0 28q-2 4 -11 16.5t-12 18t-8.5 17.5t-7.5 24t-2 27v173v23.5v24.5
t-0.5 22.5t-2 23t-3.5 20.5t-5.5 21.5t-8.5 19t-12 19.5t-16 18q-55 54 -167 54zM547 502h29v-25v-17.5v-18t-0.5 -16t-2 -18t-3.5 -16t-5.5 -17.5t-7.5 -16q-8 -15 -20 -27t-26.5 -18t-30.5 -6q-21 0 -36 10t-23 28t-8 42q0 31 10.5 53.5t30.5 34.5t42 18.5t51 8.5z
M854 243q-23 0 -45.5 -6t-40.5 -19q-3 -4 -4 -6.5t1 -4.5t6 -2q3 0 10.5 1t13 1.5t13.5 1.5t14 1t13 0.5t12.5 0t11 -1.5t9.5 -3t6 -4q2 -3 2.5 -8t0 -11t-2 -13.5t-3.5 -14t-5 -15t-5.5 -14t-5.5 -13t-4 -11.5q-1 -3 0 -5t3.5 -2t6.5 1q32 26 46 74t5 60q-9 13 -58 13z
M118 230q-5 0 -6 -5t3 -7q80 -73 181.5 -112t215.5 -39q55 0 112.5 11.5t114 34t99.5 53.5q8 6 8 12t-6.5 10t-13.5 1q-30 -13 -60.5 -22.5t-61 -17t-61.5 -12t-61 -7t-60 -2.5q-216 0 -397 106q-3 -7 -7 -4z" />
    <glyph glyph-name="ambulance-solid" unicode="&#xe919;" 
d="M576 864q-27 0 -45.5 -18.5t-18.5 -45.5v-32h-480v-608h101q11 -42 45 -69t78 -27t78 27t45 69h266q11 -42 45 -69t78 -27t78 27t45 69h101v364l-8 9l-192 224l-9 11h-143v32q0 27 -18.5 45.5t-45.5 18.5zM96 704h657l175 -204v-276h-37q-11 42 -45 69t-78 27t-78 -27
t-45 -69h-266q-11 42 -45 69t-78 27t-78 -27t-45 -69h-37v480zM448 608v-96h-96v-64h96v-96h64v96h96v64h-96v96h-64zM256 256q27 0 45.5 -18.5t18.5 -45.5t-18.5 -45.5t-45.5 -18.5t-45.5 18.5t-18.5 45.5t18.5 45.5t45.5 18.5zM768 256q27 0 45.5 -18.5t18.5 -45.5
t-18.5 -45.5t-45.5 -18.5t-45.5 18.5t-18.5 45.5t18.5 45.5t45.5 18.5z" />
    <glyph glyph-name="american-sign-language-interpreting-solid" unicode="&#xe91a;" 
d="M295 724l-82 -98l-1 -8l-20 -87v141h-64v-224l-32 -32v-192l140 31l72 -29l6 -2h26l7 5l86 51l8 6l5 9l32 77l-60 24l-28 -67l-50 -31q-17 4 -33.5 11.5t-33.5 27.5t-17 47q0 33 16 57t32 31l16 8h50l55 -55l46 46l-64 64l-10 9h-59l6 9l81 50l-34 54l-88 -54l-6 -3
l-36 -54l12 52l72 86zM684 672l-7 -5l-86 -51l-8 -6l-5 -9l-32 -77l60 -24l28 67l50 31q17 -4 33.5 -11.5t33.5 -27.5t17 -47q0 -33 -16 -57t-32 -31l-16 -8h-50l-55 55l-46 -46l64 -64l10 -9h59l-6 -9l-81 -50l34 -54l88 54l6 3l36 54l-12 -52l-72 -86l50 -40l82 98l1 8
l20 87v-141h64v224l32 32v192l-140 -31l-72 29l-6 2h-26z" />
    <glyph glyph-name="amilia" unicode="&#xe91b;" 
d="M526 768q-79 0 -143.5 -13t-115.5 -51q-6 -4 -9 -11t-1 -17q9 -44 14 -56q4 -10 13.5 -12t15.5 3q36 25 101 43t124 18q20 0 34.5 -3.5t23.5 -12t14.5 -16.5t8 -23.5t3 -26t0.5 -30.5v-55q-107 -14 -224.5 -35t-148.5 -34q-11 -4 -19 -13t-12.5 -22t-7.5 -24t-4 -27.5
t-1 -24.5v-22.5v-15.5q0 -15 3.5 -32t15 -41t29.5 -42t52 -31t79 -13q51 0 126 18.5t118 41.5v-44q0 -11 8 -13q9 -3 75 -3q91 0 95 1q7 2 7 13v432q0 90 -68 142t-206 52zM609 423v-163q-16 -9 -38 -17t-47 -13t-46 -5t-38.5 6.5t-27.5 15.5t-17 20t-9.5 19t-2.5 14
q0 1 -0.5 8.5t0 11.5t1 12t2.5 13t4.5 11.5t7.5 11t11 7.5q25 14 87.5 29t112.5 19z" />
    <glyph glyph-name="anchor-solid" unicode="&#xe91c;" 
d="M512 832q-53 0 -90.5 -37.5t-37.5 -90.5q0 -44 27 -78t69 -45v-69h-96v-64h96v-255q-99 8 -166 67q-34 30 -60 75l51 25l-128 58l-34 -138l53 26q31 -55 75 -94q82 -73 209 -82v-2l32 -32l32 32v2q127 9 209 82q44 39 75 94l53 -26l-34 138l-128 -58l51 -25
q-26 -45 -60 -75q-67 -59 -166 -67v255h96v64h-96v69q42 11 69 45t27 78q0 53 -37.5 90.5t-90.5 37.5zM512 768q27 0 45.5 -18.5t18.5 -45.5t-18.5 -45.5t-45.5 -18.5t-45.5 18.5t-18.5 45.5t18.5 45.5t45.5 18.5z" />
    <glyph glyph-name="android" unicode="&#xe91d;" 
d="M337 848q-9 -2 -11.5 -10.5t3.5 -15.5l47 -68q-88 -68 -88 -178v-320q0 -29 32 -50v-94q0 -33 23.5 -56.5t56.5 -23.5t56.5 23.5t23.5 56.5v80h64v-80q0 -33 23.5 -56.5t56.5 -23.5t56.5 23.5t23.5 56.5v94q32 21 32 50v320q0 110 -88 178l47 68q6 8 2 17q-5 9 -15 9h-3
q-7 -2 -10 -8l-48 -68q-50 28 -109 28t-109 -28l-48 68q-4 8 -13 8h-5zM512 736q58 0 102 -36.5t55 -91.5h-314q11 55 55 91.5t102 36.5zM448 704q-13 0 -22.5 -9.5t-9.5 -22.5t9.5 -22.5t22.5 -9.5t22.5 9.5t9.5 22.5t-9.5 22.5t-22.5 9.5zM576 704q-13 0 -22.5 -9.5
t-9.5 -22.5t9.5 -22.5t22.5 -9.5t22.5 9.5t9.5 22.5t-9.5 22.5t-22.5 9.5zM192 608v-320h64v320h-64zM768 608v-320h64v320h-64zM352 544h320v-288h-32v-144q0 -16 -16 -16t-16 16v144h-192v-144q0 -16 -16 -16t-16 16v144h-32v288z" />
    <glyph glyph-name="angellist" unicode="&#xe91e;" 
d="M410 832q-15 1 -30 -5q-26 -11 -37 -40q-8 -21 -7 -50q1 -43 20 -111q10 -37 27 -84q-7 1 -16 1q-17 -1 -33 -11q-38 -25 -43 -66q-3 -26 9 -59q-29 -3 -47 -20q-29 -28 -29 -84q0 -79 35.5 -132t89.5 -78q63 -29 158 -29q89 0 152 43q109 75 109 256v11q1 11 0.5 20
t-2 22.5t-7.5 28t-15 26.5t-27 26q21 70 34 134q14 70 13 112q-1 30 -8 48q-12 31 -41 37q-30 7 -58 -9q-21 -12 -40 -38q-29 -40 -51 -107q-2 -8 -11 -39q-9 25 -18 47q-29 69 -58 106q-20 25 -41 36q-14 7 -28 8zM405 769l4 -2q8 -4 20 -19q24 -31 49 -90q24 -58 40 -114
h-2q-33 0 -57 -23q-25 62 -42 122q-16 58 -17 95q-1 17 3 27l1 3zM693 764h4q3 -10 3 -22q1 -33 -12 -98q-11 -56 -29 -118q-28 9 -61 13q11 59 29 115q19 59 41 89q11 15 20 20q2 1 5 1zM516 480q141 0 177 -48q6 -7 8.5 -16.5t3 -15t0 -19.5t-0.5 -18q0 -148 -81 -203
q-47 -32 -116 -32q-81 0 -131 23q-42 19 -65 53.5t-23 98.5q0 29 10 39q5 5 19 2q39 -9 85 -70q10 -13 21 -32q-5 -6 -12 -6q-8 0 -18 9q-11 10 -30 39l-54 -35q22 -34 41 -51q29 -26 61 -26q37 0 61 29q2 2 3 5t2 6.5t2 5.5q8 -22 16 -34q6 -9 13.5 -16.5t11.5 -10.5l5 -3
l35 53q-5 2 -12 13q-15 22 -15 56q0 15 5 25q7 13 27 26q8 5 17 9t14 5l5 1q7 2 12.5 6t9 10.5t3.5 13.5q0 11 -6 20t-17 12q-51 15 -91 27q-4 1 -7 4l-2 2t-2 3.5t-2 3.5q-3 7 -2 16t6 15q5 5 13 5zM368 479q1 1 9 -2q14 -5 32 -23q42 -42 69 -110q4 -11 2 -15t-10 -8
q-9 -4 -19 -4l-3 1q1 0 5 -5l-2 -1q-30 41 -60 64q-20 23 -30 49q-8 19 -6 34q2 13 13 20z" />
    <glyph glyph-name="angle-double-down-solid" unicode="&#xe91f;" 
d="M167 746l-46 -45l391 -391l391 391l-46 45l-345 -345zM167 522l-46 -45l391 -391l391 391l-46 45l-345 -345z" />
    <glyph glyph-name="angle-double-left-solid" unicode="&#xe920;" 
d="M509 807l-359 -359l359 -359l45 46l-313 313l313 313zM733 807l-359 -359l359 -359l45 46l-313 313l313 313z" />
    <glyph glyph-name="angle-double-right-solid" unicode="&#xe921;" 
d="M291 807l-45 -46l313 -313l-313 -313l45 -46l359 359zM515 807l-45 -46l313 -313l-313 -313l45 -46l359 359z" />
    <glyph glyph-name="angle-double-up-solid" unicode="&#xe922;" 
d="M512 810l-391 -391l46 -45l345 345l345 -345l46 45zM512 586l-391 -391l46 -45l345 345l345 -345l46 45z" />
    <glyph glyph-name="angle-down-solid" unicode="&#xe923;" 
d="M135 615l-46 -46l400 -400l23 -22l23 22l400 400l-46 46l-377 -377z" />
    <glyph glyph-name="angle-left-solid" unicode="&#xe924;" 
d="M609 823l-352 -352l-22 -23l22 -23l352 -352l46 46l-329 329l329 329z" />
    <glyph glyph-name="angle-right-solid" unicode="&#xe925;" 
d="M415 823l-46 -46l329 -329l-329 -329l46 -46l352 352l22 23l-22 23z" />
    <glyph glyph-name="angle-up-solid" unicode="&#xe926;" 
d="M512 749l-23 -22l-400 -400l46 -46l377 377l377 -377l46 46l-400 400z" />
    <glyph glyph-name="angry-solid" unicode="&#xe927;" 
d="M512 832q-159 0 -271.5 -112.5t-112.5 -271.5t112.5 -271.5t271.5 -112.5t271.5 112.5t112.5 271.5t-112.5 271.5t-271.5 112.5zM512 768q133 0 226.5 -93.5t93.5 -226.5t-93.5 -226.5t-226.5 -93.5t-226.5 93.5t-93.5 226.5t93.5 226.5t226.5 93.5zM342 576
q-22 -22 -22 -53t22 -53t53 -22t53 22zM682 576l-106 -106q22 -22 53 -22t53 22t22 53t-22 53zM594 389q-8 0 -14 -1q-33 -5 -87 -41q-42 -28 -61 -31q-26 -4 -57 27l-46 -46q53 -53 113 -44q32 5 86 41q40 27 61 30q29 4 61 -27l44 46q-48 47 -100 46z" />
    <glyph glyph-name="angry" unicode="&#xe928;" 
d="M512 832q-159 0 -271.5 -112.5t-112.5 -271.5t112.5 -271.5t271.5 -112.5t271.5 112.5t112.5 271.5t-112.5 271.5t-271.5 112.5zM512 768q133 0 226.5 -93.5t93.5 -226.5t-93.5 -226.5t-226.5 -93.5t-226.5 93.5t-93.5 226.5t93.5 226.5t226.5 93.5zM342 576
q-22 -22 -22 -53t22 -53t53 -22t53 22zM682 576l-106 -106q22 -22 53 -22t53 22t22 53t-22 53zM594 389q-8 0 -14 -1q-33 -5 -87 -41q-42 -28 -61 -31q-26 -4 -57 27l-46 -46q53 -53 113 -44q32 5 86 41q40 27 61 30q29 4 61 -27l44 46q-48 47 -100 46z" />
    <glyph glyph-name="angrycreative" unicode="&#xe929;" 
d="M928 672l-50 -4l-36 -72l-21 69l-52 -4l7 -19q-16 19 -58 16l-63 -5l-5 -50l-1.5 3t-4.5 7.5t-7.5 10t-11.5 10.5t-15.5 9t-20 6t-24.5 2q-19 -2 -35 -8.5t-25.5 -13.5t-19.5 -19.5t-13 -17.5t-9 -16l6 65l-45 -3l-11 -105l-60 100l-43 -3l-16 -165l-49 161l-39 -3
l-91 -192l51 3l13 29l64 4l7 -27l90 5l10 105l61 -100l40 2l6 64q23 -66 89 -62q11 1 21.5 3.5t18.5 5.5t15.5 8t12 9t9.5 10l7.5 9t6 8.5t4.5 6.5l-5 -49l45 3l7 60l30 -58l59 4l-41 61q27 11 40 31t11 47l26 -68l-8 -69l46 2l7 70zM697 615h16.5t12.5 -1t7 -2q7 -4 6 -17
q-2 -13 -12 -19q-5 -3 -14 -4.5t-21 -2.5zM562 604q9 1 19 -4q8 -3 18 -13l50 4l-2 -19l-101 -7l-4 -38l55 4q-12 -16 -24 -23q-10 -5 -21 -6q-21 -2 -35 12q-4 5 -7 10.5t-4 12.5t0 14q2 24 21 39q16 13 35 14zM220 563l14 -59l-38 -3zM1024 476l-149 -10l-51 -130l-21 126
l-49 -3l38 -186l51 3l76 182l-20 -179l103 7l5 41l-55 -3l4 31l55 4l5 44l-56 -4l3 29l56 4zM749 458l-46 -3l-20 -189l45 3zM696 454l-120 -7l-5 -44l36 2l-14 -135l-52 174l-38 -2l-88 -185l4 33l-59 -4l4 31l58 4l4 44l-58 -3l3 28l58 4l4 43l-104 -6l-4 -42
q-8 41 -68 37l-62 -4l-5 -48l-3 5t-5 8.5t-7 9t-11 9.5t-14 7.5t-18.5 5t-23.5 0.5q-46 -3 -75 -34t-33 -69q-3 -43 23.5 -68.5t67.5 -23.5q19 1 37 9.5t31.5 20.5t22.5 27l-5 -46l45 2l6 59l31 -56l202 12l13 25l63 5l7 -25l92 6l16 145l39 2zM256 383q12 -1 17.5 -5
t4.5 -15q-1 -15 -12.5 -20t-33.5 -6l4 45q13 1 20 1zM516 381l12 -59l-37 -3zM104 373q27 2 42 -25l42 2l-4 -47l-43 -2q-4 -5 -7.5 -9.5t-8 -8t-9.5 -6t-10.5 -4.5t-11.5 -2q-24 -2 -35.5 13t-9.5 36q1 19 17 35t38 18zM321 346l-9 -95l-36 53q34 14 45 42z" />
    <glyph glyph-name="angular" unicode="&#xe92a;" 
d="M512 834l-372 -135l66 -502l306 -170l306 170l66 502zM512 766l302 -110l-56 -418l-246 -137l-246 137l-56 418zM512 704l-192 -448h64l41 96h174l41 -96h64zM512 558l1 -2l22 -56l36 -84h-118l36 84l22 56z" />
    <glyph glyph-name="ankh-solid" unicode="&#xe92b;" 
d="M512 896q-66 0 -113 -47t-47 -113q0 -71 69 -174q2 -4 7 -10t6 -8h-178v-101l37 5l184 26l-29 -440l-2 -34h132l-2 34l-29 440l184 -26l37 -5v101h-178q1 2 6 8t7 10q69 103 69 174q0 66 -47 113t-113 47zM512 832q40 0 68 -28t28 -68q0 -51 -59 -139q-14 -21 -37 -49
q-23 28 -37 49q-59 88 -59 139q0 40 28 68t68 28z" />
    <glyph glyph-name="app-store-ios" unicode="&#xe92c;" 
d="M160 800v-704h704v704h-704zM224 736h576v-576h-576v576zM512 672q-4 1 -7 -1q-10 -5 -6 -14q66 -153 115 -245l43 23q-45 86 -139 232zM488 600q-19 2 -28 -14l48 -29q6 11 3 22.5t-13 17.5q-3 1 -10 3zM456 579l-26 -44l49 -28l25 43zM427 530l-103 -179l49 -28
l102 178zM288 480v-64h62l37 64h-99zM475 480l-37 -64h163q-16 31 -32 64h-94zM644 480q14 -26 22 -41q0 -1 1 -2.5t2 -3.5l7 -17h60v64h-92zM660 429l-42 -23l32 -50l32 19zM686 367l-31 -17l33 -78q4 -10 14.5 -14t20 1t12.5 16.5t-3 20.5zM320 344l-18 -83l5 -2l62 57z
" />
    <glyph glyph-name="app-store" unicode="&#xe92d;" 
d="M512 864q-172 0 -294 -122t-122 -294t122 -294t294 -122t294 122t122 294t-122 294t-294 122zM512 800q146 0 249 -103t103 -249t-103 -249t-249 -103t-249 103t-103 249t103 249t249 103zM511 696q-4 -1 -8 -3l-16 -9q-17 -10 -7 -27l137 -235l50 29l-137 235
q-7 12 -19 10zM469 618q-13 2 -20 -10l-17 -30l52 -30l17 30q10 17 -7 27l-18 10q-5 3 -7 3zM428 571l-121 -207l51 -30l121 207zM256 477v-58h73l34 58h-107zM450 477l-32 -58h187l-32 58h-123zM664 477l31 -58h72v58h-103zM673 441l-50 -29l29 -50l50 29zM699 378
q-2 0 -5 -2q-4 -2 -27 -16q-16 -10 0 -37q9 -16 26 -26.5t23 -19.5q4 -7 5 -13t2 -7q3 -4 5 -1q15 23 13.5 53t-13.5 48q-16 23 -29 21zM300 353l-25 -94q-1 -3 2 -5q3 -1 5 1l70 68z" />
    <glyph glyph-name="apper" unicode="&#xe92e;" 
d="M100 575q-59 0 -74 -19q-9 -10 -10 -39h62q1 13 6 17t18 4q16 0 22.5 -5.5t6.5 -19.5l-1 -36q-6 14 -16.5 18.5t-37.5 4.5q-24 0 -38.5 -6t-21.5 -18.5t-7 -32.5q0 -33 14.5 -46t51.5 -13q26 0 38 6.5t18 25.5h2l-2 -31h61v122q0 10 -2 21.5t-4 16.5q-9 17 -28 23.5
t-58 6.5zM345 575q-26 0 -37.5 -6.5t-23.5 -26.5l2 33h-61v-270h63v112h2q3 -13 9.5 -20t17 -10t27.5 -3q39 0 53 15q19 21 19 85q0 33 -4.5 50t-16.5 27q-16 14 -50 14zM568 575q-9 0 -15.5 -0.5t-12 -2t-9.5 -3.5t-8 -6t-7.5 -9t-8.5 -12l2 33h-61v-270h63l1 112
q6 -19 18 -26t37 -7q39 0 53 15q7 8 11.5 18.5t6 26t1.5 40.5q0 33 -4 50t-16 27q-16 14 -51 14zM753 575q-52 0 -72 -18q-20 -17 -20 -73q0 -63 19 -81q18 -19 81 -19q55 0 70 21q11 14 11 39v4h-60q0 -13 -6 -17.5t-22 -4.5q-19 0 -25.5 7t-6.5 28v8h121v17q0 52 -19 70.5
t-71 18.5zM971 575q-18 0 -28.5 -7t-19.5 -25l2 32h-61v-190h61v109q0 15 2 20q3 7 8 11t13 4q4 0 6.5 -1t4.5 -3t3 -6t1.5 -9t0.5 -12v-7h56q-1 7 -1 15q0 39 -10 55q-4 4 -9.5 7.5t-12.5 5t-16 1.5zM752 532q20 0 25.5 -4.5t5.5 -19.5q0 -3 1 -6h-61v6q1 10 3.5 15t8 7
t17.5 2zM321 530q21 0 27.5 -9.5t6.5 -42.5q0 -29 -6.5 -38.5t-26.5 -9.5q-21 0 -27.5 10t-6.5 44q0 15 1.5 23.5t5.5 13.5t10 7t16 2zM545 530q21 0 27 -9.5t6 -42.5q0 -29 -6.5 -38.5t-26.5 -9.5q-21 0 -27.5 10t-6.5 44q0 19 3 28.5t10 13.5t21 4zM99 463q19 0 25.5 -4
t6.5 -15q0 -12 -6 -16.5t-22 -4.5q-20 0 -26.5 4t-6.5 17q0 11 6.5 15t22.5 4z" />
    <glyph glyph-name="apple-alt-solid" unicode="&#xe92f;" 
d="M332 833l-15 -1l-33 -3l4 -33q8 -73 60 -127q-80 -12 -134 -71.5t-54 -138.5q0 -153 111 -267q42 -43 92 -70q49 -26 85 -26q25 0 50 8q14 4 28 0q25 -8 50 -8q37 0 87 31q48 30 91 77q110 120 110 255q0 88 -66 150.5t-158 62.5q-46 0 -91 -21l-1 1v3q7 38 26 67t34 40
l16 10l-32 56q-45 -27 -78 -85q-17 26 -41 45q-57 46 -141 45zM363 765q45 -7 70 -27q27 -22 43 -62q-44 6 -71 28q-27 21 -42 61zM384 608q61 0 107 -39l21 -17l21 17q46 39 107 39q67 0 113.5 -44t46.5 -105q0 -111 -93 -212q-35 -39 -78 -65q-36 -22 -53 -22q-15 0 -30 5
q-34 11 -68 0q-15 -5 -30 -5q-21 0 -55 18q-41 22 -77 59q-92 94 -92 222q0 61 46.5 105t113.5 44z" />
    <glyph glyph-name="apple-pay" unicode="&#xe930;" 
d="M282 672q-31 0 -54 -27q-9 -11 -15 -25.5t-3 -28.5q14 -1 28.5 6t23.5 20q22 23 20 55zM154 587q-39 0 -64.5 -30.5t-25.5 -77.5q0 -39 16 -77t38 -60t40 -22q11 0 27.5 7t32.5 7q11 0 20.5 -3.5l19 -7t18.5 -3.5q19 0 39 23.5t30 43.5t11 27q-2 1 -5.5 3t-9.5 6
t-11.5 9.5t-10.5 13t-8 17.5t-3 21q0 43 39 68q-23 35 -66 35q-7 0 -14.5 -1t-13.5 -3l-12 -4t-11 -4t-10 -3t-8 -1q-6 0 -26 8t-32 8zM416 576v-256h64v96h16q43 0 67 48h13v32q0 33 -23.5 56.5t-56.5 23.5h-80zM647 576l-71 -219v-37h64v27l2 5h60l2 -5v-27h64v37l-71 219
h-50zM768 576v-42l64 -98v-116h64v116l64 98v42h-64v-22l-32 -50l-32 50v22h-64zM480 512h16q16 0 16 -16t-16 -16h-16v32zM672 445l10 -29h-20z" />
    <glyph glyph-name="apple" unicode="&#xe931;" 
d="M667 896q-82 0 -141 -70q-55 -68 -44 -138q-2 1 -4.5 1.5t-4.5 1.5q-47 19 -82 19q-96 0 -160 -76.5t-64 -190.5q0 -138 77 -259q33 -51 73 -84q44 -36 84 -36q30 0 71 18q32 14 56 14q20 0 52 -14q41 -18 73 -18q45 0 87 38q30 27 60 75q21 33 39 73q6 12 11 26
q5 13 6 17l6 26l-24 11q-26 12 -48 34q-37 38 -37 91q0 51 33 89q12 14 24 23l8 5q1 0 2 1t3 2l27 17l-18 27q-34 52 -82 71.5t-87 19.5q-9 0 -23.5 -4t-16.5 -4q3 2 11.5 8.5t12.5 12.5l2 1q55 61 50 142l-2 30h-30zM629 822q-9 -36 -29 -57l-2 -2q-17 -23 -50 -36
q9 35 27 58l1 1q20 22 53 36zM391 646q21 0 58 -15q47 -19 67 -19q10 0 20 2t16.5 4t18.5 6.5t17 6.5q44 15 75 15q16 0 43 -10.5t50 -32.5q-15 -13 -18 -17q-49 -57 -49 -131q0 -80 55 -136q13 -13 42 -30q-1 -2 -2.5 -5.5t-2.5 -6.5q-17 -38 -35 -66q-24 -39 -49 -61
t-44 -22q-17 0 -47 13q-43 19 -78 19q-39 0 -82 -19q-30 -13 -45 -13q-17 0 -44 22q-31 26 -59 69q-67 105 -67 224q0 92 45.5 147.5t114.5 55.5z" />
    <glyph glyph-name="archive-solid" unicode="&#xe932;" 
d="M128 800v-192h32v-512h704v512h32v192h-768zM192 736h640v-64h-640v64zM224 608h576v-448h-576v448zM410 544q-13 -1 -21.5 -11.5t-7.5 -23.5t11.5 -21.5t23.5 -7.5h192q19 0 28 16t0 32t-28 16h-198z" />
    <glyph glyph-name="archway-solid" unicode="&#xe933;" 
d="M96 768v-192h64v-384h-64v-64h320v224q0 40 28 68t68 28t68 -28t28 -68v-224h320v64h-64v384h64v192h-832zM160 704h704v-64h-704v64zM224 576h576v-384h-128v160q0 66 -47 113t-113 47t-113 -47t-47 -113v-160h-128v384z" />
    <glyph glyph-name="arrow-alt-circle-down-solid" unicode="&#xe934;" 
d="M512 864q-172 0 -294 -122t-122 -294t122 -294t294 -122t294 122t122 294t-122 294t-294 122zM512 800q146 0 249 -103t103 -249t-103 -249t-249 -103t-249 103t-103 249t103 249t249 103zM480 672v-320h-96l128 -128l128 128h-96v320h-64z" />
    <glyph glyph-name="arrow-alt-circle-down" unicode="&#xe935;" 
d="M512 864q-172 0 -294 -122t-122 -294t122 -294t294 -122t294 122t122 294t-122 294t-294 122zM512 800q146 0 249 -103t103 -249t-103 -249t-249 -103t-249 103t-103 249t103 249t249 103zM480 672v-320h-96l128 -128l128 128h-96v320h-64z" />
    <glyph glyph-name="arrow-alt-circle-left-solid" unicode="&#xe936;" 
d="M512 864q-172 0 -294 -122t-122 -294t122 -294t294 -122t294 122t122 294t-122 294t-294 122zM512 800q146 0 249 -103t103 -249t-103 -249t-249 -103t-249 103t-103 249t103 249t249 103zM416 576l-128 -128l128 -128v96h320v64h-320v96z" />
    <glyph glyph-name="arrow-alt-circle-left" unicode="&#xe937;" 
d="M512 864q-172 0 -294 -122t-122 -294t122 -294t294 -122t294 122t122 294t-122 294t-294 122zM512 800q146 0 249 -103t103 -249t-103 -249t-249 -103t-249 103t-103 249t103 249t249 103zM416 576l-128 -128l128 -128v96h320v64h-320v96z" />
    <glyph glyph-name="arrow-alt-circle-right-solid" unicode="&#xe938;" 
d="M512 864q-172 0 -294 -122t-122 -294t122 -294t294 -122t294 122t122 294t-122 294t-294 122zM512 800q146 0 249 -103t103 -249t-103 -249t-249 -103t-249 103t-103 249t103 249t249 103zM608 576v-96h-320v-64h320v-96l128 128z" />
    <glyph glyph-name="arrow-alt-circle-right" unicode="&#xe939;" 
d="M512 864q-172 0 -294 -122t-122 -294t122 -294t294 -122t294 122t122 294t-122 294t-294 122zM512 800q146 0 249 -103t103 -249t-103 -249t-249 -103t-249 103t-103 249t103 249t249 103zM608 576v-96h-320v-64h320v-96l128 128z" />
    <glyph glyph-name="arrow-alt-circle-up-solid" unicode="&#xe93a;" 
d="M512 864q-172 0 -294 -122t-122 -294t122 -294t294 -122t294 122t122 294t-122 294t-294 122zM512 800q146 0 249 -103t103 -249t-103 -249t-249 -103t-249 103t-103 249t103 249t249 103zM512 672l-128 -128h96v-320h64v320h96z" />
    <glyph glyph-name="arrow-alt-circle-up" unicode="&#xe93b;" 
d="M512 864q-172 0 -294 -122t-122 -294t122 -294t294 -122t294 122t122 294t-122 294t-294 122zM512 800q146 0 249 -103t103 -249t-103 -249t-249 -103t-249 103t-103 249t103 249t249 103zM512 672l-128 -128h96v-320h64v320h96z" />
    <glyph glyph-name="arrow-circle-down-solid" unicode="&#xe93c;" 
d="M512 864q-172 0 -294 -122t-122 -294t122 -294t294 -122t294 122t122 294t-122 294t-294 122zM512 800q146 0 249 -103t103 -249t-103 -249t-249 -103t-249 103t-103 249t103 249t249 103zM480 672v-329l-128 128l-45 -46l205 -205l205 205l-45 46l-128 -128v329h-64z
" />
    <glyph glyph-name="arrow-circle-left-solid" unicode="&#xe93d;" 
d="M512 864q-172 0 -294 -122t-122 -294t122 -294t294 -122t294 122t122 294t-122 294t-294 122zM512 800q146 0 249 -103t103 -249t-103 -249t-249 -103t-249 103t-103 249t103 249t249 103zM489 653l-205 -205l205 -205l46 45l-128 128h329v64h-329l128 128z" />
    <glyph glyph-name="arrow-circle-right-solid" unicode="&#xe93e;" 
d="M512 864q-172 0 -294 -122t-122 -294t122 -294t294 -122t294 122t122 294t-122 294t-294 122zM512 800q146 0 249 -103t103 -249t-103 -249t-249 -103t-249 103t-103 249t103 249t249 103zM535 653l-46 -45l128 -128h-329v-64h329l-128 -128l46 -45l205 205z" />
    <glyph glyph-name="arrow-circle-up-solid" unicode="&#xe93f;" 
d="M512 864q-172 0 -294 -122t-122 -294t122 -294t294 -122t294 122t122 294t-122 294t-294 122zM512 800q146 0 249 -103t103 -249t-103 -249t-249 -103t-249 103t-103 249t103 249t249 103zM512 676l-205 -205l45 -46l128 128v-329h64v329l128 -128l45 46z" />
    <glyph glyph-name="arrow-down-solid" unicode="&#xe940;" 
d="M480 832v-642l-217 217l-46 -46l272 -272l23 -22l23 22l272 272l-46 46l-217 -217v642h-64z" />
    <glyph glyph-name="arrow-left-solid" unicode="&#xe941;" 
d="M425 743l-272 -272l-22 -23l22 -23l272 -272l46 46l-217 217h642v64h-642l217 217z" />
    <glyph glyph-name="arrow-right-solid" unicode="&#xe942;" 
d="M599 743l-46 -46l217 -217h-642v-64h642l-217 -217l46 -46l272 272l22 23l-22 23z" />
    <glyph glyph-name="arrow-up-solid" unicode="&#xe943;" 
d="M512 829l-23 -22l-272 -272l46 -46l217 217v-642h64v642l217 -217l46 46l-272 272z" />
    <glyph glyph-name="arrows-alt-h-solid" unicode="&#xe944;" 
d="M297 743l-272 -272l-22 -23l22 -23l272 -272l46 46l-217 217h772l-217 -217l46 -46l272 272l22 23l-22 23l-272 272l-46 -46l217 -217h-772l217 217z" />
    <glyph glyph-name="arrows-alt-solid" unicode="&#xe945;" 
d="M512 909l-183 -182l46 -46l105 106v-307h-307l106 105l-46 46l-182 -183l182 -183l46 46l-106 105h307v-307l-105 106l-46 -46l183 -182l183 182l-46 46l-105 -106v307h307l-106 -105l46 -46l182 183l-182 183l-46 -46l106 -105h-307v307l105 -106l46 46z" />
    <glyph glyph-name="arrows-alt-v-solid" unicode="&#xe946;" 
d="M512 893l-23 -22l-256 -256l46 -46l201 201v-644l-201 201l-46 -46l256 -256l23 -22l23 22l256 256l-46 46l-201 -201v644l201 -201l46 46l-256 256z" />
    <glyph glyph-name="artstation" unicode="&#xe947;" 
d="M439 800l393 -704l64 144q24 48 -4 93l-249 421q-6 11 -15 19.5t-19.5 14.5t-22.5 9t-25 3h-122zM368 730l-188 -346h381zM128 288l70 -139q12 -24 35 -38.5t50 -14.5h439l-107 192h-487z" />
    <glyph glyph-name="assistive-listening-systems-solid" unicode="&#xe948;" 
d="M792 916l-35 -53q76 -49 121 -130l56 31q-52 94 -142 152zM738 836l-36 -53q61 -42 93 -98l55 32q-39 69 -112 119zM544 800q-106 0 -181 -75t-75 -181h64q0 81 55.5 136.5t136.5 55.5t136.5 -55.5t55.5 -136.5q0 -76 -44 -150q-2 -3 -10 -16.5t-10.5 -18t-9.5 -17
t-9.5 -20.5t-6 -19.5t-5 -23t-1.5 -23.5q0 -40 -28 -68t-68 -28v-64q66 0 113 47t47 113q0 9 2 18.5t3.5 15.5t7.5 17.5t8.5 15.5t11 18.5t11.5 19.5q52 88 52 183q0 106 -75 181t-181 75zM544 704q-66 0 -113 -47t-47 -113h64q0 40 28 68t68 28t68 -28t28 -68h64
q0 66 -47 113t-113 47zM544 544q-13 0 -22.5 -9.5t-9.5 -22.5t9.5 -22.5t22.5 -9.5t22.5 9.5t9.5 22.5t-9.5 22.5t-22.5 9.5zM448 448q-13 0 -22.5 -9.5t-9.5 -22.5t9.5 -22.5t22.5 -9.5t22.5 9.5t9.5 22.5t-9.5 22.5t-22.5 9.5zM327 386l-38 -39l90 -90l39 38zM256 256
q-13 0 -22.5 -9.5t-9.5 -22.5t9.5 -22.5t22.5 -9.5t22.5 9.5t9.5 22.5t-9.5 22.5t-22.5 9.5zM160 160q-13 0 -22.5 -9.5t-9.5 -22.5t9.5 -22.5t22.5 -9.5t22.5 9.5t9.5 22.5t-9.5 22.5t-22.5 9.5z" />
    <glyph glyph-name="asterisk-solid" unicode="&#xe949;" 
d="M566 416l199 -269l-77 -51l-176 278l-176 -278l-74 51l199 269l-298 77l29 83l291 -102l-19 326h96l-16 -326l288 102l26 -86z" />
    <glyph glyph-name="asymmetrik" unicode="&#xe94a;" 
d="M579 765q-133 3 -269 -29.5t-246 -95.5q116 45 265 78q203 45 344 23q117 -18 179 -73t56 -131.5t-81 -156.5q-8 -8 -17.5 -17t-20 -17t-20.5 -16l-230 339l-294 -429l-3 1q-193 66 -51 229q41 43 124 90q57 32 100 48q-77 -25 -143.5 -62t-111.5 -83q-63 -65 -64 -129
q-1 -72 129 -124l-56 -82h158l38 57q51 -2 105 4l-38 -61h211l-52 86q21 6 42 13t41 15l59 -90l15 -24h158l-117 173q47 30 79 64q90 93 91 181q1 38 -16.5 72t-50.5 61t-83 47t-113 30q-56 8 -117 9zM538 447l22 -32l97 -147q-20 -8 -40 -15t-41 -13l-38 63l-50 -83
q-44 -7 -103 -5z" />
    <glyph glyph-name="at-solid" unicode="&#xe94b;" 
d="M518 832q-116 2 -212 -59.5t-144 -166.5t-29 -223q20 -123 111 -210.5t215 -104.5q165 -22 293 80l-40 50q-107 -86 -245 -67q-102 14 -177.5 87t-92.5 175q-16 99 23.5 187t119.5 138.5t177 49.5q126 -2 218.5 -93t96.5 -217v-11q0 -53 -37.5 -90t-90.5 -37
q-27 0 -45.5 18.5t-18.5 45.5v256h-64v-25q-37 25 -80 25q-59 0 -101.5 -42.5t-42.5 -101.5v-96q0 -59 42.5 -101.5t101.5 -42.5q64 0 108 50q39 -50 100 -50q79 0 135.5 56t56.5 135v13q-5 152 -115.5 261t-262.5 111zM496 576q33 0 56.5 -23.5t23.5 -56.5v-96
q0 -33 -23.5 -56.5t-56.5 -23.5t-56.5 23.5t-23.5 56.5v96q0 33 23.5 56.5t56.5 23.5z" />
    <glyph glyph-name="atlas-solid" unicode="&#xe94c;" 
d="M288 832q-39 0 -67.5 -28.5t-28.5 -67.5v-576q0 -39 28.5 -67.5t67.5 -28.5h544v768h-544zM288 768h480v-512h-480q-15 0 -32 -6v486q0 14 9 23t23 9zM512 704q-79 0 -135.5 -56.5t-56.5 -135.5t56.5 -135.5t135.5 -56.5t135.5 56.5t56.5 135.5t-56.5 135.5t-135.5 56.5z
M534 637q25 -4 43 -15l2 -23l-15 6l-12 -10l2 -29l31 9l38 -12l-10 -17l-23 14l-25 -4l-24 -18l-14 -42l27 -22q29 5 30 5l12 -26l-16 -49q-10 -6 -20.5 -10.5t-23 -7t-24.5 -2.5q-5 0 -22 3l-6 10l15 56l-57 43h-53l-4 8q0 1 -0.5 4t-0.5 4q0 7 2 20l27 21l57 27l-9 37
l25 5l11 -16l43 8zM418 425h10l19 -23q-17 10 -29 23zM288 192h480v-64h-480q-14 0 -23 9t-9 23t9 23t23 9z" />
    <glyph glyph-name="atlassian" unicode="&#xe94d;" 
d="M510 832q-12 0 -19 -12q-24 -39 -39.5 -80t-24.5 -76t-9 -75.5t2.5 -71t14 -71.5t20 -67t27.5 -68t30 -64t32 -65q26 -49 38 -74q6 -12 18 -12h243q12 0 18 10.5t1 20.5l-335 694q-3 5 -7.5 8t-9.5 3zM508 712q49 -101 134 -276.5t133 -275.5h-148l-28 56
q-24 46 -35.5 70t-31 67t-27.5 70.5t-17 68t-8.5 73t7 71.5t21.5 76zM330 512q-12 0 -18 -12l-182 -372q-5 -11 1.5 -21.5t18.5 -10.5h253q13 0 19 12q41 87 19.5 202t-93.5 194q-8 8 -18 8zM338 408q33 -58 42.5 -125t-7.5 -123h-156z" />
    <glyph glyph-name="atom-solid" unicode="&#xe94e;" 
d="M512 864q-49 0 -90 -45t-67 -124.5t-33 -180.5q27 -28 62 -56q1 28 4 62q38 26 60 39q132 76 247 91q21 3 40 3q65 0 82 -29q15 -26 -11 -76q27 -25 47 -47q55 93 19 155q-21 37 -69 51.5t-117 6.5q-127 -17 -270 -100q-1 0 -17 -10q17 87 48.5 141.5t64.5 54.5
q30 0 60 -47q36 11 64 17q-52 94 -124 94zM295 716q-107 2 -143 -60q-40 -68 29 -170q8 -11 14 -20q78 -101 221 -184q2 -2 5.5 -3.5t7 -3.5t5.5 -3q-58 -20 -105 -26t-79 1t-43 25q-15 26 11 76q-27 24 -47 47q-55 -93 -19 -155q35 -61 137 -61q23 0 49 3q14 2 29 5l8 2
q26 6 58 15l21 7q47 16 95 40q12 37 18 81q-25 -14 -55 -28q-34 16 -64 33q-132 77 -202 168q-29 38 -39 69.5t0 49.5q15 25 71 28q7 35 17 64zM664 579q-38 -8 -80 -25q22 -13 52 -34q4 -41 4 -72q0 -91 -17.5 -169.5t-44 -125t-54.5 -55.5q-6 -2 -12 -2q-30 0 -60 47
q-35 -11 -64 -17q52 -94 124 -94q10 0 18 2q76 14 125 130.5t49 283.5q0 4 -0.5 11t-0.5 9q47 -40 75 -77q29 -38 39 -69.5t0 -49.5q-15 -26 -71 -28q-8 -37 -17 -64q1 0 3 -0.5t3 -0.5q102 0 137 61q21 37 10 86t-53 104q-60 78 -165 149zM512 512q-27 0 -45.5 -18.5
t-18.5 -45.5t18.5 -45.5t45.5 -18.5t45.5 18.5t18.5 45.5t-18.5 45.5t-45.5 18.5z" />
    <glyph glyph-name="audible" unicode="&#xe94f;" 
d="M512 704q-120 0 -219.5 -63t-151.5 -166q55 76 140 120.5t183 44.5q107 0 198 -52.5t144 -141.5l73 37q-53 100 -151 160.5t-216 60.5zM512 576q-88 0 -159.5 -48t-105.5 -126q38 51 95 80.5t123 29.5q70 0 129.5 -33t97.5 -90l73 37q-37 68 -104.5 109t-148.5 41z
M32 468v-72l480 -240l480 240v72l-480 -240zM511 448q-52 0 -93 -30.5t-57 -78.5q42 45 103 45q68 0 111 -53l73 37q-21 36 -57.5 58t-79.5 22z" />
    <glyph glyph-name="audio-description-solid" unicode="&#xe950;" 
d="M179 736l-10 -9q-4 -4 -11 -12.5t-25.5 -36t-32 -57.5t-25 -77.5t-11.5 -95.5t11 -94.5t26 -78.5t30.5 -57t26.5 -37l11 -12l10 -9h666l10 9q4 4 11 12.5t25.5 36t32 57.5t25 77.5t11.5 95.5t-11 94.5t-26 78.5t-30.5 57t-26.5 37l-11 12l-10 9h-666zM209 672h606
q13 -14 27 -33t34 -74.5t20 -116.5t-20 -116.5t-34 -74.5t-27 -33h-606q-13 14 -27 33t-34 74.5t-20 116.5t20 116.5t34 74.5t27 33zM332 576l-128 -256h72l16 32h60v-32h64q53 0 90.5 37.5t37.5 90.5t-37.5 90.5t-90.5 37.5h-84zM511 576q65 -48 65 -128t-65 -128h89
q40 57 40 128t-40 128h-89zM637 576q35 -60 35 -128t-35 -128h72q27 62 27 128q0 67 -27 128h-72zM744 576q24 -61 24 -128t-24 -128h68q20 62 20 128t-20 128h-68zM416 512q27 0 45.5 -18.5t18.5 -45.5t-18.5 -45.5t-45.5 -18.5v128zM352 472v-56h-28z" />
    <glyph glyph-name="autoprefixer" unicode="&#xe951;" 
d="M510 800l-233 -704h112l40 128h166l40 -128h112zM511 490h2l63 -202h-127zM296 288l-249 -18l-15 -35l242 -11zM726 288l23 -64l243 11l-15 35z" />
    <glyph glyph-name="avianex" unicode="&#xe952;" 
d="M340 832q-56 0 -101.5 -38t-55.5 -93l-85 -463q-10 -58 25 -100t93 -42h468q56 0 101.5 38t55.5 93l85 463q5 28 -1.5 54t-23.5 46t-41 31t-52 11h-468zM340 768h468q13 0 24.5 -5t19.5 -14q16 -19 11 -48l-85 -463q-6 -31 -34 -54.5t-60 -23.5h-468q-28 0 -44 19t-11 48
l85 463q4 21 18 39t34.5 28.5t41.5 10.5zM365 705l-13 -7l-28 -44l103 -151l31 -44q-30 -31 -49 -53l-88 47l-23 -23l79 -73l61 -92l27 19l-33 97q26 16 62 41l175 -166l48 20l9 12l-143 180l-7 12q14 9 26.5 18t19.5 14.5t8 5.5q4 4 6 9.5t1.5 12t-3.5 13.5t-8 12
q-7 8 -15.5 12.5t-17 4.5t-14.5 -5q-21 -20 -51 -49l-7 7z" />
    <glyph glyph-name="aviato" unicode="&#xe953;" 
d="M100 608l-100 -210h27l31 67h83l30 -67h28zM560 608l-100 -210h28l30 67h39l-3 -62q-4 -1 -10 -3.5t-17 -12.5t-13 -22q-1 -1 -1 -2l-103 3l103 -13q0 -4 1 -10l2 -11l-388 20l142 -15v-10q-7 -1 -12 -6.5t-5 -12.5q0 -9 6 -14.5t14 -5.5t14 5.5t6 14.5q0 7 -5 12.5
t-12 6.5v9l129 -14v-9q-7 -1 -11.5 -6.5t-4.5 -12.5q0 -17 19.5 -17t19.5 17q0 4 -2 8.5t-5.5 7t-7.5 3.5v8l45 -5v-38h-10v-22h10v10h8v-10h9v22h-9v37l61 -7q6 -8 13.5 -13.5t12.5 -6.5l4 -2v-10h-8v-20h7v8h8l1 -8h6v20h-8l-1 10q18 4 31 22l61 7v-37h-9v-22h9v10h8v-10
h10v22h-10v38l46 5v-8q-7 -1 -11.5 -6.5t-4.5 -12.5q0 -17 20 -17q19 0 19 17q0 7 -4.5 12.5t-10.5 6.5v9l128 14v-9q-17 -3 -17 -20q0 -8 6 -14t14 -6t14 6t6 14q0 5 -2.5 9.5t-6 7t-8.5 3.5v10l142 15l-389 -20q2 4 3 11v11l104 13l-104 -2q-1 8 -5.5 14.5t-10.5 11
t-11.5 7.5t-9.5 4l-4 1l-2 62h39l30 -67h28zM912 604q-22 0 -41 -8q-27 -12 -34 -20q-15 -15 -23 -34q-8 -18 -8 -41q0 -22 8 -41q4 -10 10 -18t13 -15q15 -15 34 -23q19 -9 41 -9t41 9q10 4 18.5 9.5t15.5 13.5q14 13 23 33q1 4 2.5 8t2.5 8t1.5 8t1 8.5t0.5 8.5
q0 22 -8 41q-3 7 -6.5 13t-7.5 11.5t-9 9.5q-2 3 -5 5t-5 3.5t-5.5 3t-6 2.5t-6 2.5t-6.5 3.5q-19 8 -41 8zM188 601l100 -210l100 210h-28l-72 -153l-72 153h-28zM420 601v-203h24v203h-24zM640 601v-18h67v-185h27v185h66v18h-160zM912 584q18 0 31 -7q16 -7 27 -17
q3 -4 6.5 -8t6 -8.5t4.5 -9.5q6 -15 6 -33q0 -8 -1.5 -16.5t-4.5 -15.5q-7 -16 -17 -26q-11 -12 -27 -18q-13 -6 -31 -6t-32 6q-16 7 -26 18q-11 11 -17 26q-6 16 -6 32q0 9 1.5 17t4.5 16q6 14 17 26q4 4 8 7t8.5 5.5t9.5 4.5q8 4 15.5 5.5t16.5 1.5zM100 555l31 -68h-63z
M560 555l31 -68h-29l-2 45l-2 -45h-29z" />
    <glyph glyph-name="award-solid" unicode="&#xe954;" 
d="M512 864q-30 0 -57 -19l-53 -37l-62 -8l-1 -1q-31 -7 -53 -29t-29 -53l-1 -2l-8 -62l-37 -48l-1 -2q-17 -27 -17 -59t18 -57l38 -53l10 -55l-103 -157l-33 -49h153l37 -86l23 -55l33 50l101 152q44 -18 84 0l101 -152l33 -50l23 55l37 86h153l-33 49l-100 152l8 60l37 53
l1 2q17 27 17 58.5t-18 56.5l-37 53l-11 60l-1 2q-4 32 -27 54.5t-55 26.5l-60 8l-53 37q-27 19 -57 19zM512 799q11 0 20 -6l64 -46l8 -1l71 -10q23 -3 26 -26v-2l13 -71l1 -7l5 -6l41 -57q14 -20 -1 -44l-45 -63l-1 -8l-10 -71q-1 -8 -5 -14l-2 -2q-7 -9 -19 -10h-2
l-73 -13l-8 -1l-6 -5l-57 -41q-20 -15 -45 1l-52 40l-6 5l-9 1l-71 10q-15 2 -22 14q-3 6 -4 12v2l-13 73l-1 8l-5 6l-41 57q-15 20 1 45l40 52l5 6l1 9l9 67l1 1q7 25 32 32l1 1l75 10l7 5l57 41q9 6 20 6zM733 312l49 -75h-77l-8 -20l-22 -51l-68 104l15 11l63 10l2 1
q25 3 46 20zM291 311q22 -20 51 -23l61 -8l14 -11l-68 -103l-22 51l-8 20h-77z" />
    <glyph glyph-name="aws" unicode="&#xe955;" 
d="M211 672q-21 0 -42.5 -5t-35 -11t-17.5 -11q-3 -5 -3 -18.5t7 -15.5q6 0 15 4q38 14 66 14q32 3 50 -15.5t15 -47.5v-22q-38 9 -68 9q-27 1 -50 -7.5t-37.5 -29t-14.5 -50.5q0 -23 9.5 -40.5t24 -25.5t27 -11.5t23.5 -3.5q55 0 90 43q8 -18 15.5 -27t9.5 -9.5t4 -0.5
q4 0 8 3l19 13q5 3 6 9q0 1 -8.5 18.5t-7.5 37.5v100q3 43 -26 75q-34 29 -79 25zM831 672q-31 0 -54.5 -12t-35 -30t-10.5 -39q0 -19 8 -34.5t21 -24t20 -11.5t14 -5q8 -3 19.5 -6.5t16.5 -5t11.5 -3.5t9 -3.5t7 -3.5t7 -4t5.5 -5q5 -4 7 -11t1 -14t-5 -13.5t-11 -10.5
q-29 -18 -81 -7q-17 3 -42 14q-12 4 -12 -8v-16q1 -12 11 -17q11 -6 25 -10t26 -5.5t19 -2t12 -0.5h3.5t7 0.5t11 1.5t13 2.5t14.5 4t14.5 6.5t14 8.5t12.5 11.5t10 15q4 7 6.5 17.5t0.5 29t-13 32.5l-9 9t-9.5 7.5t-9 5.5t-12.5 5l-13.5 4.5t-17.5 5.5t-20 6
q-8 2 -14.5 4.5t-17.5 12t-11 21.5q0 10 4.5 17.5t11.5 11t15.5 5.5t14 2.5t9.5 -0.5q14 1 26.5 -1.5t20 -5t14.5 -5.5t10 -3q7 0 7 9v15q1 5 -3 10q-6 8 -22.5 13.5t-31.5 7.5t-25 2zM345 664q-7 -2 -6 -8l3 -12l72 -237q3 -16 18 -15h26q15 -1 19 16l47 197l47 -198
q4 -17 19 -15h26q8 -1 12.5 3.5t6.5 11.5q75 242 76 244q0 6 -1.5 9t-3.5 3.5t-3 -0.5h-29q-14 2 -17 -14l-54 -206l-48 206q-2 16 -18 14h-24q-16 2 -19 -14l-48 -203l-51 203q-3 16 -18 15h-32zM209 516q28 -1 56 -8q0 -27 -3 -39q-4 -15 -21.5 -29t-48.5 -15
q-20 -1 -32.5 12.5t-10.5 31.5q-1 26 18.5 37t41.5 10zM929 320q-56 -1 -92 -26q-6 -4 -5 -8.5t8 -4.5q97 12 109 -3t-25 -107q-2 -6 2 -8t10 3q33 28 48 79t5 63q-4 5 -21 8.5t-39 3.5zM39 288q-6 -1 -7 -6.5t4 -10.5q187 -175 475 -175q67 0 135.5 14t135 42t118.5 67
q12 10 5 21t-21 5q-174 -77 -362 -77q-280 0 -475 118q-4 2 -8 2z" />
    <glyph glyph-name="baby-carriage-solid" unicode="&#xe956;" 
d="M576 832v-288h-266q-15 35 -39 67q-70 93 -175 93v-64q73 0 124 -67q24 -32 36 -68q2 -80 45 -146.5t113 -102.5q-39 -1 -66.5 -29t-27.5 -67t28.5 -67.5t67.5 -28.5t67.5 28.5t28.5 67.5q0 43 -32 72q35 -8 64 -8h96q29 0 64 8q-32 -29 -32 -72q0 -39 28.5 -67.5
t67.5 -28.5t67.5 28.5t28.5 67.5t-27.5 67t-66.5 29q64 33 106 92.5t50 131.5q2 17 2 28v36h-2q-5 70 -32 126q-33 69 -104 115.5t-182 46.5h-32zM640 764q145 -12 197 -122q21 -44 25 -98h-222v220zM327 480h530q-12 -82 -73 -137t-144 -55h-96q-83 0 -144 55t-73 137z
M416 192q14 0 23 -9t9 -23t-9 -23t-23 -9t-23 9t-9 23t9 23t23 9zM768 192q14 0 23 -9t9 -23t-9 -23t-23 -9t-23 9t-9 23t9 23t23 9z" />
    <glyph glyph-name="baby-solid" unicode="&#xe957;" 
d="M512 896q-53 0 -90.5 -37.5t-37.5 -90.5t37.5 -90.5t90.5 -37.5t90.5 37.5t37.5 90.5t-37.5 90.5t-90.5 37.5zM512 832q27 0 45.5 -18.5t18.5 -45.5t-18.5 -45.5t-45.5 -18.5t-45.5 18.5t-18.5 45.5t18.5 45.5t45.5 18.5zM512 608q-60 0 -114.5 -21.5t-90 -52.5t-62 -62
t-38.5 -52l-12 -22l58 -28q5 10 15 26t44 52.5t72 59.5v-195q-25 -9 -49 -22q-30 -16 -50 -38q-28 -30 -29 -65q-2 -53 52 -132q11 -17 24 -33.5t20 -24.5l7 -8l48 44q-23 25 -46 58q-42 62 -41 94q0 11 12 24t34 25q15 8 36 16q44 -59 110 -59q65 0 109 58q18 -7 33 -15
q22 -12 34 -25q11 -12 11 -24q0 -32 -42 -93l-44 -56l46 -44q26 28 51 64q53 76 53 129q0 36 -28 67q-19 21 -50 38q-20 11 -45 20v197q38 -23 71 -57.5t47 -57.5l13 -23l58 28q-4 9 -12.5 23t-38 50t-63 64t-88.5 50.5t-115 22.5zM512 544q34 0 64 -8v-238q-22 -42 -64 -42
t-64 42v238q30 8 64 8z" />
    <glyph glyph-name="backspace-solid" unicode="&#xe958;" 
d="M371 736l-10 -9l-256 -256l-22 -23l22 -23l256 -256l10 -9h557v576h-557zM398 672h466v-448h-466l-224 224zM485 584l-45 -45l91 -91l-91 -91l45 -45l91 91l91 -91l45 45l-91 91l91 91l-45 45l-91 -91z" />
    <glyph glyph-name="backward-solid" unicode="&#xe959;" 
d="M544 800l-51 -38l-384 -288l-34 -26l34 -26l435 -326v236l269 -198l51 -37v702l-51 -37l-269 -198v236zM800 673v-450l-269 198l-36 27l36 27zM480 672v-448l-298 224z" />
    <glyph glyph-name="bacon-solid" unicode="&#xe95a;" 
d="M334 800q-40 0 -81 -18t-61 -36l-21 -18l-11 -10v-238h46l9 7q25 20 48 33q42 24 71 24q26 0 77 -15q58 -17 101 -17q42 0 99 17q50 15 79 15q33 0 75 -25q22 -13 43 -31l9 -8h47v238l-11 10q-8 8 -22.5 20t-57.5 32t-83 20q-41 0 -98 -17q-50 -15 -80 -15t-80 15
q-57 17 -98 17zM334 736q30 0 80 -15q57 -17 98 -17t98 17q50 15 80 15q47 0 110 -48v-21l-5 3q-57 34 -105 34q-35 0 -92 -17q-50 -15 -86 -15q-37 0 -88 15q-58 17 -90 17q-44 0 -103 -34q-2 -1 -4 -2.5t-3 -2.5v23q63 48 110 48zM334 672q30 0 81 -15q58 -17 97 -17
q38 0 95 17q50 15 83 15q39 0 89 -30q9 -5 21 -14v-55l-2 1q-57 34 -108 34q-40 0 -97 -17q-50 -15 -81 -15t-83 15q-59 17 -95 17q-45 0 -103 -33q-2 -1 -3.5 -2.5t-3.5 -2.5v57q21 14 23 15q51 30 87 30zM334 416q-40 0 -81 -18t-61 -36l-21 -18l-11 -10v-238h46l9 7
q25 20 48 33q42 24 71 24q26 0 77 -15q58 -17 101 -17q42 0 99 17q50 15 79 15q33 0 75 -25q22 -13 43 -31l9 -8h47v238l-11 10q-8 8 -22.5 20t-57.5 32t-83 20q-41 0 -98 -17q-50 -15 -80 -15t-80 15q-57 17 -98 17zM334 352q30 0 80 -15q57 -17 98 -17t98 17q50 15 80 15
q47 0 110 -48v-53l-2 1q-2 1 -3 2q-57 34 -105 34q-35 0 -92 -17q-50 -15 -86 -15q-37 0 -88 15q-58 17 -90 17q-44 0 -103 -34q-2 -1 -4 -2.5t-3 -2.5v55q63 48 110 48zM334 256q30 0 81 -15q58 -17 97 -17q38 0 95 17q50 15 83 15q39 0 89 -30q9 -5 21 -14v-23l-2 1
q-57 34 -108 34q-40 0 -97 -17q-50 -15 -81 -15t-83 15q-59 17 -95 17q-45 0 -103 -33q-2 -1 -3.5 -2.5t-3.5 -2.5v25q21 14 23 15q51 30 87 30z" />
    <glyph glyph-name="balance-scale-left-solid" unicode="&#xe95b;" 
d="M753 796l-168 -62q-29 34 -73 34q-40 0 -68 -28t-28 -68v-1v-1l-160 -62l-160 -280v-8q0 -67 47 -113.5t113 -46.5t113 46.5t47 113.5v8l-128 224l151 58q8 -9 18.5 -16.5t22.5 -11.5v-454h192v64h-128v390q28 10 46 34.5t18 55.5v2l135 50l-135 -236v-8q0 -66 47 -113
t113 -47t113 47t47 113v8l-144 252zM512 704q13 0 22.5 -9.5t9.5 -22.5t-9.5 -22.5t-22.5 -9.5t-22.5 9.5t-9.5 22.5t9.5 22.5t22.5 9.5zM768 640l73 -128h-146zM256 479l73 -127h-146zM678 448h180q-10 -28 -34.5 -46t-55.5 -18t-55.5 18t-34.5 46zM166 288h180
q-10 -29 -34.5 -46.5t-55.5 -17.5t-55.5 17.5t-34.5 46.5z" />
    <glyph glyph-name="balance-scale-right-solid" unicode="&#xe95c;" 
d="M271 796l-31 -56l-144 -252v-8q0 -66 47 -113t113 -47t113 47t47 113v8l-135 236l135 -50v-2q0 -20 8.5 -38.5t22.5 -32t33 -19.5v-390h-128v-64h192v454q6 2 11.5 5t10.5 6.5t10 7.5t9 9l151 -58l-128 -224v-8q0 -67 47 -113.5t113 -46.5q43 0 80 21.5t58.5 58
t21.5 80.5v8l-160 280l-160 62v1v1q0 40 -28 68t-68 28q-22 0 -40.5 -9t-32.5 -25zM512 704q13 0 22.5 -9.5t9.5 -22.5t-9.5 -22.5t-22.5 -9.5t-22.5 9.5t-9.5 22.5t9.5 22.5t22.5 9.5zM256 640l73 -128h-146zM768 479l73 -127h-146zM166 448h180q-5 -14 -14 -25.5
t-20.5 -20t-26 -13.5t-29.5 -5q-31 0 -55.5 18t-34.5 46zM678 288h180q-10 -29 -34.5 -46.5t-55.5 -17.5t-55.5 17.5t-34.5 46.5z" />
    <glyph glyph-name="balance-scale-solid" unicode="&#xe95d;" 
d="M512 800q-31 0 -55.5 -18t-34.5 -46h-230v-64h45l-9 -16l-128 -224l-4 -8v-8q0 -66 47 -113t113 -47t113 47t47 113v8l-4 8l-128 224l-9 16h147q15 -43 58 -58v-422h-128v-64h320v64h-128v422q43 15 58 58h147l-9 -16l-128 -224l-4 -8v-8q0 -66 47 -113t113 -47t113 47
t47 113v8l-4 8l-128 224l-9 16h45v64h-230q-10 28 -34.5 46t-55.5 18zM512 736q14 0 23 -9t9 -23t-9 -23t-23 -9t-23 9t-9 23t9 23t23 9zM256 575l73 -127h-146zM768 575l73 -127h-146zM168 384h176q-10 -28 -33.5 -46t-54.5 -18t-54.5 18t-33.5 46zM680 384h176
q-10 -28 -33.5 -46t-54.5 -18t-54.5 18t-33.5 46z" />
    <glyph glyph-name="ban-solid" unicode="&#xe95e;" 
d="M512 864q-172 0 -294 -122t-122 -294t122 -294t294 -122t294 122t122 294t-122 294t-294 122zM512 800q146 0 249 -103t103 -249q0 -130 -84 -228l-491 501q97 79 223 79zM244 676l491 -501q-97 -79 -223 -79q-146 0 -249 103t-103 249q0 130 84 228z" />
    <glyph glyph-name="band-aid-solid" unicode="&#xe95f;" 
d="M635 864l-21 -3l-7 -3l-505 -505l-3 -7q-3 -10 -3 -21q-1 -21 6 -46q19 -70 95 -146t146 -95q25 -7 46 -6l21 3l7 3l505 505l3 7q3 10 3 21q1 21 -6 46q-19 70 -95 146t-146 95q-25 7 -46 6zM639 800q10 0 25 -4q55 -15 118 -78l3 -4q61 -62 75 -114q4 -15 4 -26
l-479 -478q-10 0 -25 4q-55 15 -118 78l-4 5q-60 62 -74 113q-4 15 -4 26zM608 672q-13 0 -22.5 -9.5t-9.5 -22.5t9.5 -22.5t22.5 -9.5t22.5 9.5t9.5 22.5t-9.5 22.5t-22.5 9.5zM704 672q-13 0 -22.5 -9.5t-9.5 -22.5t9.5 -22.5t22.5 -9.5t22.5 9.5t9.5 22.5t-9.5 22.5
t-22.5 9.5zM519 583l-46 -46l128 -128l46 46zM704 576q-13 0 -22.5 -9.5t-9.5 -22.5t9.5 -22.5t22.5 -9.5t22.5 9.5t9.5 22.5t-9.5 22.5t-22.5 9.5zM423 487l-46 -46l128 -128l46 46zM320 384q-13 0 -22.5 -9.5t-9.5 -22.5t9.5 -22.5t22.5 -9.5t22.5 9.5t9.5 22.5t-9.5 22.5
t-22.5 9.5zM320 288q-13 0 -22.5 -9.5t-9.5 -22.5t9.5 -22.5t22.5 -9.5t22.5 9.5t9.5 22.5t-9.5 22.5t-22.5 9.5zM416 288q-13 0 -22.5 -9.5t-9.5 -22.5t9.5 -22.5t22.5 -9.5t22.5 9.5t9.5 22.5t-9.5 22.5t-22.5 9.5z" />
    <glyph glyph-name="bandcamp" unicode="&#xe960;" 
d="M512 864q-172 0 -294 -122t-122 -294t122 -294t294 -122t294 122t122 294t-122 294t-294 122zM512 800q146 0 249 -103t103 -249t-103 -249t-249 -103t-249 103t-103 249t103 249t249 103zM428 576l-128 -256h296l128 256h-296zM468 512h152l-64 -128h-152z" />
    <glyph glyph-name="barcode-solid" unicode="&#xe961;" 
d="M64 736v-576h64v576h-64zM192 736v-576h192v576h-192zM448 736v-576h64v576h-64zM576 736v-576h128v576h-128zM768 736v-576h64v576h-64zM896 736v-576h64v576h-64z" />
    <glyph glyph-name="bars-solid" unicode="&#xe962;" 
d="M128 736v-64h768v64h-768zM128 480v-64h768v64h-768zM128 224v-64h768v64h-768z" />
    <glyph glyph-name="baseball-ball-solid" unicode="&#xe963;" 
d="M512 864q-172 0 -294 -122t-122 -294t122 -294t294 -122t294 122t122 294t-122 294t-294 122zM512 800q37 0 72 -7.5t67 -21.5t60.5 -33.5t52.5 -44.5q-50 -36 -82 -91l55 -32q9 14 19.5 27.5t22.5 25t26 20.5q59 -88 59 -195t-59 -195q-43 30 -69 74l-55 -32
q16 -27 37 -50t46 -42q-19 -20 -41 -36.5t-46.5 -29.5t-51 -22t-55.5 -14t-58 -5q-73 0 -138 28.5t-114 78.5q51 38 83 92l-55 32q-26 -44 -69 -74q-59 88 -59 195t59 195q42 -29 68 -73l55 32q-16 27 -36.5 50t-45.5 41q49 50 114 78.5t138 28.5zM371 537l-62 -19
q11 -34 11 -70t-10 -69l61 -18q13 42 13 87q0 46 -13 89zM653 537q-13 -43 -13 -89q0 -22 3 -44t10 -43l61 18q-10 33 -10 69t11 70z" />
    <glyph glyph-name="basketball-ball-solid" unicode="&#xe964;" 
d="M512 864q-172 0 -294 -122t-122 -294t122 -294t294 -122t294 122t122 294t-122 294t-294 122zM476 798h2h2v-318h-98q-10 135 -97 237q83 70 191 81zM544 798q111 -10 195 -81q-87 -102 -97 -237h-98v318zM240 671q68 -82 78 -191h-156q10 108 78 191zM784 671
q68 -83 78 -191h-156q10 109 78 191zM162 416h156q-10 -109 -78 -191q-68 83 -78 191zM382 416h98v-318q-111 10 -195 81q87 102 97 237zM544 416h98q10 -135 97 -237q-84 -71 -195 -81v318zM706 416h156q-10 -108 -78 -191q-68 82 -78 191z" />
    <glyph glyph-name="bath-solid" unicode="&#xe965;" 
d="M832 832q-53 0 -90.5 -37.5t-37.5 -90.5h-64v-64h192v64h-64q0 29 17.5 46.5t46.5 17.5t46.5 -17.5t17.5 -46.5v-192h-864v-64h38l49 -244q12 -53 64 -71l-23 -69h64l21 64h534l21 -64h64l-23 69q55 17 67 72l46 243h38v64h-32v192q0 53 -37.5 90.5t-90.5 37.5zM135 448
h755l-45 -231q-7 -25 -32 -25h-599q-26 0 -32 26z" />
    <glyph glyph-name="battery-empty-solid" unicode="&#xe966;" 
d="M96 704v-512h768v160h64v192h-64v160h-768zM160 640h640v-384h-640v384z" />
    <glyph glyph-name="battery-full-solid" unicode="&#xe967;" 
d="M96 704v-512h768v160h64v192h-64v160h-768zM160 640h640v-384h-640v384zM224 576v-256h512v256h-512z" />
    <glyph glyph-name="battery-half-solid" unicode="&#xe968;" 
d="M96 704v-512h768v160h64v192h-64v160h-768zM160 640h640v-384h-640v384zM224 576v-256h256v256h-256z" />
    <glyph glyph-name="battery-quarter-solid" unicode="&#xe969;" 
d="M96 704v-512h768v160h64v192h-64v160h-768zM160 640h640v-384h-640v384zM224 576v-256h128v256h-128z" />
    <glyph glyph-name="battery-three-quarters-solid" unicode="&#xe96a;" 
d="M96 704v-512h768v160h64v192h-64v160h-768zM160 640h640v-384h-640v384zM224 576v-256h448v256h-448z" />
    <glyph glyph-name="battle-net" unicode="&#xe96b;" 
d="M850 501q1 1 8 0t18.5 1.5t22 5.5t18 12t7.5 21q0 11 -5.5 23.5t-14 22.5t-19 20t-21 17t-19 13t-14.5 8l-5 3q15 33 25 51q5 9 14 31.5t16.5 44.5t8.5 30q1 5 1 10t-0.5 8t-1 5t-0.5 3l-1 1q-4 -29 -40 -99t-43 -75q-31 14 -72.5 24.5t-66.5 13.5l-26 3q-4 8 -11 21.5
t-27.5 47.5t-41.5 59.5t-49 47t-53 21.5q-24 0 -42 -17.5t-26 -42t-13 -49.5t-5 -42v-17q-3 5 -8 13t-19.5 21t-28.5 13q-22 0 -36 -20.5t-19 -51t-5 -70.5q-93 0 -171 -22q-10 -3 -20 -13q-3 -3 1 -2q21 6 80 12t112 1q2 -31 13.5 -71.5t21.5 -65.5l11 -25q-4 -5 -10 -14.5
t-21 -36t-27 -52t-21.5 -58t-9.5 -58.5q0 -11 3 -21t10 -21.5t23 -18.5t38 -7q57 0 124 38q-7 -9 -12 -25.5t-5 -26.5q0 -7 2.5 -15t14 -16t30.5 -8q23 0 51 10.5t44 20.5l16 10q56 -92 103 -134q4 -4 7.5 -6.5t6.5 -4t5.5 -2t5.5 -1.5q-5 5 -14.5 16t-38.5 52.5t-56 93.5
q16 10 34 26t32.5 31.5t26 30t18.5 23.5l6 9q8 -1 62 -1q28 0 55 2.5t55.5 8.5t49.5 15.5t34.5 25t13.5 35t-11.5 40.5t-27.5 37t-32 29t-27 20zM860 544q0 -12 -6 -18t-12 -6l-6 -1l-18 -1q-34 18 -54 26q32 50 39 63q8 -4 18 -11.5t24.5 -23.5t14.5 -28zM501 797
q18 0 42.5 -24t40.5 -47l15 -24h-3t-9 0.5t-14 0t-18 -1t-21 -2t-23 -4.5t-25 -6.5t-25.5 -9.5t-25.5 -13q2 55 19.5 93t46.5 38zM342 720q8 0 17 -9t13 -20l4 -60l-74 3q0 24 4.5 41.5t11 26.5t12.5 13.5t12 4.5zM334 257q-49 0 -49 43q0 20 9 47.5t18 44.5l10 18
q1 -4 4.5 -10t14.5 -23t23 -31.5t31 -31.5t39 -27q-51 -30 -100 -30zM465 166q-13 0 -20.5 5.5t-9.5 9.5t-2 8q0 6 2.5 13t5.5 11l3 5q47 32 50 35l36 -65q-37 -22 -65 -22zM554 202l-10 18t-8.5 16.5t-6.5 14t-4 9.5l-1 4q8 -1 20.5 -0.5t42 9t46.5 25.5q-56 -24 -106 -20
q121 107 191 201q-3 3 -14 11.5t-16 9.5q-33 -40 -100.5 -103t-131.5 -100q-36 19 -64 55t-44 72t-27 76.5t-14.5 65t-4.5 41.5l68 -6q-26 -46 -26 -79l4 -35v3t1 9l2 14t3.5 17.5t6 19.5t9.5 20t14 20q32 -174 78 -265l32 14q-7 20 -17 53.5t-27 115t-15 135.5
q58 31 119 31q56 0 112.5 -13.5t85.5 -26.5l28 -14l-39 -55q-1 3 -4 7t-11.5 16t-18 21t-23.5 18.5t-28 12.5q53 -40 71 -82q-48 18 -107.5 33.5t-98 22.5t-65.5 10q0 -4 -1 -9t-1 -9.5t-0.5 -8.5t-0.5 -6l1 -3q18 -3 49.5 -10t109 -33.5t132.5 -57.5q0 -43 -18.5 -87
t-42.5 -75.5t-53.5 -60t-48 -42.5t-28.5 -20zM713 317q6 8 15 21.5t23 55.5t14 82q2 -1 5 -3t11.5 -8t16.5 -13t18 -17t17 -19.5t12 -21t5 -21.5q0 -25 -34.5 -39t-68.5 -16z" />
    <glyph glyph-name="bed-solid" unicode="&#xe96c;" 
d="M192 768q-39 0 -67.5 -28.5t-28.5 -67.5v-217q-32 -29 -32 -71v-288h160v64h576v-64h160v288q0 42 -32 71v217q0 39 -28.5 67.5t-67.5 28.5h-640zM192 704h640q13 0 22.5 -9.5t9.5 -22.5v-192h-64v32q0 39 -28.5 67.5t-67.5 28.5h-128q-36 0 -64 -25q-28 25 -64 25h-128
q-39 0 -67.5 -28.5t-28.5 -67.5v-32h-64v192q0 13 9.5 22.5t22.5 9.5zM320 544h128q13 0 22.5 -9.5t9.5 -22.5v-32h-192v32q0 13 9.5 22.5t22.5 9.5zM576 544h128q13 0 22.5 -9.5t9.5 -22.5v-32h-192v32q0 13 9.5 22.5t22.5 9.5zM160 416h704q13 0 22.5 -9.5t9.5 -22.5v-224
h-32v64h-704v-64h-32v224q0 13 9.5 22.5t22.5 9.5z" />
    <glyph glyph-name="beer-solid" unicode="&#xe96d;" 
d="M432 832q-55 0 -100 -45q-34 13 -44 13q-53 0 -90.5 -37.5t-37.5 -90.5q0 -47 34 -85q-2 -6 -2 -11v-416q0 -39 28.5 -67.5t67.5 -28.5h384q39 0 67.5 28.5t28.5 67.5v64h32q39 0 67.5 28.5t28.5 67.5v128q0 39 -28.5 67.5t-67.5 28.5h-32v45q32 37 32 83
q0 53 -37.5 90.5t-90.5 37.5q-31 0 -64 -20q-33 20 -64 20q-3 0 -22 -4q-43 36 -90 36zM432 768q34 0 59 -27l14 -15l20 6q12 4 19 4q24 0 43 -17l21 -19l21 19q19 17 43 17q27 0 45.5 -18.5t18.5 -45.5t-18.5 -45.5t-45.5 -18.5q-16 0 -37.5 4t-35.5 8l-14 3l-41 12v-43
q0 -49 18 -105q14 -43 14 -55q0 -20 -14 -34t-34 -14t-34 14t-14 34q0 13 14 56q18 56 18 104v57l-48 -30q-6 -3 -13 -6q-12 -5 -19 -5q-31 0 -54 21l-23 21l-21 -22q-19 -20 -46 -20t-45.5 18.5t-18.5 45.5t18.5 45.5t45.5 18.5q18 0 35 -11l26 -16l18 25q24 34 65 34z
M358 568q39 -24 74 -24q2 0 4.5 1t3.5 1q-1 -5 -2.5 -19t-3.5 -20q-18 -55 -18 -75q0 -46 33 -79t79 -33t79 33t33 79q0 20 -18 75q-2 6 -3 13.5t-2.5 17.5t-2.5 15q39 -9 58 -9q12 0 32 5v-27q-3 -10 0 -19v-241q-1 -6 0 -13v-89q0 -14 -9 -23t-23 -9h-384q-14 0 -23 9
t-9 23v389q20 -5 32 -5q34 0 70 24zM768 480h32q14 0 23 -9t9 -23v-128q0 -14 -9 -23t-23 -9h-32v192z" />
    <glyph glyph-name="behance-square" unicode="&#xe96e;" 
d="M160 800v-704h704v704h-704zM224 736h576v-576h-576v576zM288 596v-275h134q26 0 47 8t35.5 26.5t14.5 45.5t-13 47t-38 27q10 5 16.5 9.5t11.5 11t7.5 14.5t2.5 18q0 68 -88 68h-130zM580 576v-27h112v27h-112zM349 554h57q41 0 41 -31q0 -33 -37 -33h-61v64zM639 530
q-45 0 -73.5 -30t-28.5 -75q0 -47 27.5 -76t74.5 -29q72 0 93 67h-48q-4 -12 -17 -19t-26 -7q-24 0 -36.5 13.5t-12.5 37.5h143q1 6 1 10q0 30 -11 54.5t-33.5 39t-52.5 14.5zM637 489q20 0 31 -11t13 -32h-89q0 13 6 23t16 15t23 5zM348 444h67q43 0 43 -40q0 -36 -45 -36
h-65v76z" />
    <glyph glyph-name="behance" unicode="&#xe96f;" 
d="M32 744v-592h286q15 0 32.5 1.5t51.5 11.5t59.5 26.5t45.5 51t20 81.5q0 37 -11 65.5t-29.5 45t-34.5 25.5t-33 14q80 38 80 123q0 19 -2 33.5t-12.5 37.5t-29 38t-56 26.5t-89.5 11.5h-278zM684 689v-54h221v54h-221zM162 643h122q89 0 89 -68q0 -29 -16 -46
t-31.5 -20.5t-31.5 -3.5h-132v138zM800 586q-59 0 -101.5 -23t-63 -58.5t-29 -67t-8.5 -59.5q0 -53 16.5 -93t40 -61t54 -34t51.5 -16.5t40 -3.5q142 0 185 133h-96q-5 -15 -27.5 -33.5t-57.5 -18.5q-97 0 -97 101h284q2 43 -7 82.5t-30 74.5t-60.5 56t-93.5 21zM797 505
q41 0 61 -22q21 -24 25 -63h-176q1 11 5 26q4 16 14 28q10 13 28 22q17 9 43 9zM162 416h141q94 0 94 -85q0 -22 -9 -38t-20.5 -23.5t-27.5 -11.5t-23.5 -4.5t-15.5 -0.5h-139v163z" />
    <glyph glyph-name="bell-slash-solid" unicode="&#xe970;" 
d="M119 887l-46 -46l832 -832l46 46l-119 119v50h-32q-13 0 -22.5 9.5t-9.5 22.5v279q0 91 -54.5 162.5t-138.5 93.5q1 8 1 9q0 27 -18.5 45.5t-45.5 18.5t-45.5 -18.5t-18.5 -45.5q0 -1 1 -8q-66 -17 -115 -64q-12 -11 -26 -30zM498 736q7 1 20 0q77 -2 131.5 -61
t54.5 -140v-233l-350 350q14 20 24 30q51 49 120 54zM257 568q-1 -11 -1 -24v-288q0 -13 -9.5 -22.5t-22.5 -9.5h-32v-64h230q-6 -17 -6 -32q0 -39 28.5 -67.5t67.5 -28.5t67.5 28.5t28.5 67.5q0 15 -6 32h64l-64 64h-288q6 17 6 32v250zM512 160q14 0 23 -9t9 -23t-9 -23
t-23 -9t-23 9t-9 23t9 23t23 9z" />
    <glyph glyph-name="bell-slash" unicode="&#xe971;" 
d="M119 887l-46 -46l832 -832l46 46l-119 119v50h-32q-13 0 -22.5 9.5t-9.5 22.5v279q0 91 -54.5 162.5t-138.5 93.5q1 8 1 9q0 27 -18.5 45.5t-45.5 18.5t-45.5 -18.5t-18.5 -45.5q0 -1 1 -8q-66 -17 -115 -64q-12 -11 -26 -30zM498 736q7 1 20 0q77 -2 131.5 -61
t54.5 -140v-233l-350 350q14 20 24 30q51 49 120 54zM257 568q-1 -11 -1 -24v-288q0 -13 -9.5 -22.5t-22.5 -9.5h-32v-64h230q-6 -17 -6 -32q0 -39 28.5 -67.5t67.5 -28.5t67.5 28.5t28.5 67.5q0 15 -6 32h64l-64 64h-288q6 17 6 32v250zM512 160q14 0 23 -9t9 -23t-9 -23
t-23 -9t-23 9t-9 23t9 23t23 9z" />
    <glyph glyph-name="bell-solid" unicode="&#xe972;" 
d="M512 864q-27 0 -45.5 -18.5t-18.5 -45.5q0 -1 1 -8q-84 -21 -138.5 -90t-54.5 -158v-288q0 -14 -9 -23t-23 -9h-32v-64h230q-6 -17 -6 -32q0 -39 28.5 -67.5t67.5 -28.5t67.5 28.5t28.5 67.5q0 15 -6 32h230v64h-32q-14 0 -23 9t-9 23v279q0 90 -54.5 162.5t-138.5 94.5
q1 7 1 8q0 27 -18.5 45.5t-45.5 18.5zM498 736h4.5h5h4.5h6q78 -2 132 -61.5t54 -139.5v-279q0 -15 6 -32h-396q6 17 6 32v288q0 76 51.5 131.5t126.5 60.5zM512 160q14 0 23 -9t9 -23t-9 -23t-23 -9t-23 9t-9 23t9 23t23 9z" />
    <glyph glyph-name="bell" unicode="&#xe973;" 
d="M512 864q-27 0 -45.5 -18.5t-18.5 -45.5q0 -1 1 -8q-84 -21 -138.5 -90t-54.5 -158v-288q0 -14 -9 -23t-23 -9h-32v-64h230q-6 -17 -6 -32q0 -39 28.5 -67.5t67.5 -28.5t67.5 28.5t28.5 67.5q0 15 -6 32h230v64h-32q-14 0 -23 9t-9 23v279q0 90 -54.5 162.5t-138.5 94.5
q1 7 1 8q0 27 -18.5 45.5t-45.5 18.5zM498 736h4.5h5h4.5h6q78 -2 132 -61.5t54 -139.5v-279q0 -15 6 -32h-396q6 17 6 32v288q0 76 51.5 131.5t126.5 60.5zM512 160q14 0 23 -9t9 -23t-9 -23t-23 -9t-23 9t-9 23t9 23t23 9z" />
    <glyph glyph-name="bezier-curve-solid" unicode="&#xe974;" 
d="M384 768v-96h-198q-10 28 -34.5 46t-55.5 18q-39 0 -67.5 -28.5t-28.5 -67.5t28.5 -67.5t67.5 -28.5q31 0 55.5 18t34.5 46h74q-18 -18 -35 -41q-56 -79 -64 -183h-97v-256h256v256h-94q8 86 51 146q44 63 107 75v-93h256v93q63 -12 107 -75q43 -60 51 -146h-94v-256h256
v256h-97q-8 104 -64 183q-17 23 -35 41h74q10 -28 34.5 -46t55.5 -18q39 0 67.5 28.5t28.5 67.5t-28.5 67.5t-67.5 28.5q-31 0 -55.5 -18t-34.5 -46h-198v96h-256zM448 704h128v-128h-128v128zM96 672q14 0 23 -9t9 -23t-9 -23t-23 -9t-23 9t-9 23t9 23t23 9zM928 672
q14 0 23 -9t9 -23t-9 -23t-23 -9t-23 9t-9 23t9 23t23 9zM128 320h128v-128h-128v128zM768 320h128v-128h-128v128z" />
    <glyph glyph-name="bible-solid" unicode="&#xe975;" 
d="M288 832q-39 0 -67.5 -28.5t-28.5 -67.5v-576q0 -39 28.5 -67.5t67.5 -28.5h544v768h-544zM288 768h480v-512h-480q-15 0 -32 -6v486q0 14 9 23t23 9zM480 704v-96h-96v-64h96v-224h64v224h96v64h-96v96h-64zM288 192h480v-64h-480q-14 0 -23 9t-9 23t9 23t23 9z" />
    <glyph glyph-name="bicycle-solid" unicode="&#xe976;" 
d="M608 768v-46l3 -6l33 -76h-278l-10 -14l-87 -123q-29 9 -61 9q-86 0 -147 -61t-61 -147t61 -147t147 -61q82 0 141.5 55.5t65.5 136.5h110l10 14l156 230l21 -48q-47 -28 -75.5 -76t-28.5 -104q0 -86 61 -147t147 -61t147 61t61 147t-61 147t-147 61q-23 0 -45 -5
l-86 197h99q16 0 16 -16t-16 -16v-64q33 0 56.5 23.5t23.5 56.5t-23.5 56.5t-56.5 23.5h-176zM256 736v-64h192l-32 64h-160zM431 576h213l-129 -190zM375 544l84 -192h-267v-64h158q-6 -54 -46.5 -91t-95.5 -37q-60 0 -102 42t-42 102t42 102t102 42q77 0 120 -64h72
q-24 57 -73 91zM816 448q60 0 102 -42t42 -102t-42 -102t-102 -42t-102 42t-42 102q0 77 66 120l65 -149l58 26l-63 145q16 2 18 2z" />
    <glyph glyph-name="biking-solid" unicode="&#xe977;" 
d="M624 800q-46 0 -79 -33t-33 -79t33 -79t79 -33t79 33t33 79t-33 79t-79 33zM624 736q20 0 34 -14t14 -34t-14 -34t-34 -14t-34 14t-14 34t14 34t34 14zM483 623q-26 -3 -43 -23l-75 -91q-19 -24 -12.5 -55t34.5 -44l110 -54l-29 -160l63 -11l34 184l4 24l-22 11l-133 64
l76 92l130 -105l9 -7h171v64h-149l-121 97q-21 17 -47 14zM272 384q-59 0 -101.5 -42.5t-42.5 -101.5t42.5 -101.5t101.5 -42.5t101.5 42.5t42.5 101.5t-42.5 101.5t-101.5 42.5zM752 384q-59 0 -101.5 -42.5t-42.5 -101.5t42.5 -101.5t101.5 -42.5t101.5 42.5t42.5 101.5
t-42.5 101.5t-101.5 42.5zM272 320q33 0 56.5 -23.5t23.5 -56.5t-23.5 -56.5t-56.5 -23.5t-56.5 23.5t-23.5 56.5t23.5 56.5t56.5 23.5zM752 320q33 0 56.5 -23.5t23.5 -56.5t-23.5 -56.5t-56.5 -23.5t-56.5 23.5t-23.5 56.5t23.5 56.5t56.5 23.5z" />
    <glyph glyph-name="bimobject" unicode="&#xe978;" 
d="M160 800v-704h704v704h-704zM224 736h576v-576h-576v576zM320 640v-346h96l1 52q10 -29 34 -43.5t71 -14.5h25q50 0 82 8.5t47.5 26t20.5 37.5t5 51v52q0 31 -5 51t-20.5 38t-47.5 26t-82 8h-26q-40 0 -69.5 -13t-35.5 -45v112h-96zM482 504h71q36 1 46.5 -10.5
t10.5 -39.5v-34q0 -11 -1 -17.5t-4 -13.5t-9 -11t-16.5 -6t-26.5 -2h-71q-35 0 -50.5 11t-15.5 42v28q0 31 15.5 42t50.5 11z" />
    <glyph glyph-name="binoculars-solid" unicode="&#xe979;" 
d="M352 800q-47 0 -81.5 -30t-42.5 -76q-102 -26 -137 -117l-68 -191q-23 -47 -23 -98q0 -93 65.5 -158.5t158.5 -65.5q83 0 145.5 54t75.5 134q28 -28 67 -28t67 28q13 -80 75.5 -134t145.5 -54q93 0 158.5 65.5t65.5 158.5q0 46 -18 88l-73 204l-1 2q-36 86 -136 112
q-8 46 -42.5 76t-81.5 30q-44 0 -77.5 -27t-44.5 -69h-76q-11 42 -44.5 69t-77.5 27zM352 736q29 0 46.5 -17.5t17.5 -46.5v-32h192v32q0 29 17.5 46.5t46.5 17.5t46.5 -17.5t17.5 -46.5v-29l29 -3q35 -4 64 -26t43 -56l1 -1l24 -68q-47 23 -97 23q-69 0 -125.5 -39
t-81.5 -101q-28 44 -81 44t-81 -44q-25 62 -81.5 101t-125.5 39q-50 0 -96 -22l24 66q29 76 107 84l29 3v29q0 29 17.5 46.5t46.5 17.5zM224 448q67 0 113.5 -46.5t46.5 -113.5t-46.5 -113.5t-113.5 -46.5t-113.5 46.5t-46.5 113.5q0 30 14 63q0 1 0.5 2t0.5 2
q19 42 58 67.5t87 25.5zM800 448q67 0 113.5 -46.5t46.5 -113.5t-46.5 -113.5t-113.5 -46.5t-113.5 46.5t-46.5 113.5t46.5 113.5t113.5 46.5zM512 352q14 0 23 -9t9 -23t-9 -23t-23 -9t-23 9t-9 23t9 23t23 9z" />
    <glyph glyph-name="biohazard-solid" unicode="&#xe97a;" 
d="M435 819q-65 -22 -106 -75t-41 -120q0 -43 22 -93q-47 0 -92 -25q-58 -34 -84 -96.5t-12 -131.5l64 13q-10 48 8 92t56 68q50 29 110.5 9.5t93.5 -76.5q35 -59 20 -122q-15 -59 -64 -89q-38 -22 -86 -15t-84 40l-42 -48q62 -57 148 -57q49 0 99 25q42 24 67 68
q25 -44 67 -68q45 -25 99 -25q86 0 148 57l-42 48q-36 -33 -84 -40t-86 15q-49 30 -64 89q-15 63 20 122q33 57 92 76.5t112 -9.5q38 -22 56 -66t8 -94l64 -13q12 70 -15 132.5t-84 95.5q-45 25 -93 25q23 41 23 93q0 67 -41.5 120t-109.5 75l-19 -61q48 -14 77 -51t29 -83
q0 -60 -46.5 -102t-113.5 -42t-113.5 42t-46.5 102q0 46 28.5 83t76.5 51zM512 640q-56 0 -96 -22q5 -37 32 -55q26 13 61 13t61 -13q32 21 32 55q-31 22 -90 22zM512 448q14 0 23 -9t9 -23t-9 -23t-23 -9t-23 9t-9 23t9 23t23 9zM319 406q-17 1 -31 -6q10 -105 96 -166
q24 14 29 44v13q-52 41 -61 106q-19 8 -33 9zM707 403q-21 0 -35 -9q-10 -67 -64 -106v-13q4 -26 29 -45q89 59 99 167q-18 6 -29 6z" />
    <glyph glyph-name="birthday-cake-solid" unicode="&#xe97b;" 
d="M512 920l-26 -38q-17 -24 -34 -53q-14 -23 -23 -45q-13 -30 -13 -48q0 -39 28.5 -67.5t67.5 -28.5t67.5 28.5t28.5 67.5q0 18 -13 48q-9 22 -23 45l-34 53zM416 640v-128h-192q-53 0 -90.5 -37.5t-37.5 -90.5q0 -49 32 -85v-235h768v235q32 36 32 85q0 53 -37.5 90.5
t-90.5 37.5h-192v128h-192zM512 804q0 -1 4 -7q16 -27 21 -39q2 -5 4 -11l3 -9v-2q0 -13 -9.5 -22.5t-22.5 -9.5t-22.5 9.5t-9.5 22.5v2l3 9t4 11q5 12 21 39q4 6 4 7zM480 576h64v-64h-64v64zM224 448h576q29 0 46.5 -17.5t17.5 -46.5t-17.5 -46.5t-46.5 -17.5t-46.5 17.5
t-17.5 46.5h-64q0 -29 -17.5 -46.5t-46.5 -17.5t-46.5 17.5t-17.5 46.5h-64q0 -29 -17.5 -46.5t-46.5 -17.5t-46.5 17.5t-17.5 46.5h-64q0 -29 -17.5 -46.5t-46.5 -17.5t-46.5 17.5t-17.5 46.5t17.5 46.5t46.5 17.5zM320 299q38 -43 96 -43t96 43q38 -43 96 -43t96 43
q38 -43 96 -43q12 0 32 5v-133h-640v133q20 -5 32 -5q58 0 96 43z" />
    <glyph glyph-name="bitbucket" unicode="&#xe97c;" 
d="M512 800q-111 0 -205 -25q-49 -13 -74 -28q-41 -25 -41 -59q0 -10 4 -20q1 -7 23 -121.5t44 -228.5t26 -132q5 -25 30 -44q20 -15 49 -25q61 -21 144 -21t144 21q31 11 50 25q26 20 30 45q4 29 16 91q5 28 18 92.5t15 75.5q10 49 20 102t16 84.5t7 35.5q4 10 4 20
q0 34 -41 59q-25 15 -74 28q-94 25 -205 25zM512 736q106 0 189 -22q36 -10 57 -22q1 0 5 -4q-4 -4 -5 -4q-21 -12 -57 -22q-83 -22 -189 -22t-189 22q-36 10 -57 22q-1 0 -5 4q4 4 5 4q21 12 57 22q83 22 189 22zM271 612q16 -6 36 -11q94 -25 205 -25t205 25q20 5 36 11
q-26 -128 -31 -153q-4 -22 -11.5 -61t-8.5 -47q-2 -1 -4 -4q-11 -14 -26 -23q-56 -36 -160 -36q-105 0 -161 36q-14 9 -25 22l-5 6q-13 65 -30 154t-20 106zM512 544q-39 0 -67.5 -28.5t-28.5 -67.5t28.5 -67.5t67.5 -28.5t67.5 28.5t28.5 67.5t-28.5 67.5t-67.5 28.5z
M512 480q14 0 23 -9t9 -23t-9 -23t-23 -9t-23 9t-9 23t9 23t23 9zM339 259q70 -35 173 -35q104 0 172 34q-11 -57 -12 -61l-5 -4q-13 -10 -31 -16q-50 -17 -124 -17t-123 17q-20 7 -32 16q-3 3 -6 5q0 2 -2.5 13.5t-5.5 26.5t-4 21z" />
    <glyph glyph-name="bitcoin" unicode="&#xe97d;" 
d="M384 864v-96h-128v-640h128v-96h64v96h64v-96h64v96h48q73 0 124.5 51.5t51.5 124.5q0 49 -25 90.5t-67 64.5q60 53 60 133q0 73 -51.5 124.5t-124.5 51.5h-16v96h-64v-96h-64v96h-64zM320 704h272q47 0 79.5 -32.5t32.5 -79.5t-32.5 -79.5t-79.5 -32.5h-272v224z
M320 416h304q47 0 79.5 -32.5t32.5 -79.5t-32.5 -79.5t-79.5 -32.5h-304v224z" />
    <glyph glyph-name="bity" unicode="&#xe97e;" 
d="M512 864q-86 0 -165.5 -30.5t-143.5 -87.5q-10 -9 -11 -22t8 -23t22 -11t23 8q114 102 267 102t267 -102q9 -8 21 -8q3 0 6.5 0.5t6.5 2t6 3.5t5 5q9 10 8 23t-11 22q-64 57 -143.5 87.5t-165.5 30.5zM352 640q-13 0 -22.5 -9.5t-9.5 -22.5v-112q0 -61 55.5 -102.5
t136.5 -41.5t136.5 41.5t55.5 102.5v112q0 13 -9.5 22.5t-22.5 9.5t-22.5 -9.5t-9.5 -22.5v-112q0 -33 -38 -56.5t-90 -23.5t-90 23.5t-38 56.5v112q0 13 -9.5 22.5t-22.5 9.5zM138.5 543.5q-13.5 2.5 -24 -5.5t-12.5 -21q-6 -35 -6 -71q0 -146 87 -261.5t225 -151.5
q4 -1 8 -1q11 0 19.5 6.5t11.5 17.5q3 13 -3.5 24.5t-19.5 14.5q-116 31 -190 129t-74 222q0 31 5 61q2 13 -5.5 23.5t-21 13zM885.5 543.5q-13.5 -2.5 -21 -13t-5.5 -23.5q5 -30 5 -61q0 -124 -74 -222t-190 -129q-13 -3 -19.5 -14.5t-3.5 -24.5q3 -11 11.5 -17.5
t19.5 -6.5q4 0 8 1q138 36 225 151.5t87 261.5q0 36 -6 71q-2 13 -12.5 21t-24 5.5zM512 320q-13 0 -22.5 -9.5t-9.5 -22.5v-96q0 -13 9.5 -22.5t22.5 -9.5t22.5 9.5t9.5 22.5v96q0 13 -9.5 22.5t-22.5 9.5z" />
    <glyph glyph-name="black-tie" unicode="&#xe97f;" 
d="M160 800v-704h704v704h-704zM224 736h576v-576h-576v576zM384 672l90 -116l-90 -248l128 -116l128 116l-90 248l90 116h-256z" />
    <glyph glyph-name="blackberry" unicode="&#xe980;" 
d="M512 864q-172 0 -294 -122t-122 -294t122 -294t294 -122t294 122t122 294t-122 294t-294 122zM512 800q146 0 249 -103t103 -249t-103 -249t-249 -103t-249 103t-103 249t103 249t249 103zM311 608l-19 -86h69q69 0 69 48q0 38 -53 38h-66zM488 608l-19 -86h69
q69 0 69 48q0 38 -53 38h-66zM650 531l-19 -87h68q69 0 69 49q0 38 -53 38h-65zM287 478l-18 -87h68q69 0 69 49q0 38 -53 38h-66zM464 478l-18 -87h68q69 0 69 49q0 38 -53 38h-66zM624 395l-19 -86h69q68 0 68 49q0 37 -52 37h-66zM439 342l-19 -86h69q68 0 68 49
q0 37 -52 37h-66z" />
    <glyph glyph-name="blender-phone-solid" unicode="&#xe981;" 
d="M210 800q-17 -1 -26 -15q-56 -97 -56 -209t56 -209q6 -9 16 -13t21 -1l62 19q7 7 4 17l-25 77q-4 12 -16 12h-26q-13 0 -16 12q-11 42 -11 86t11 86q3 12 16 12h26q3 0 5.5 1t4.5 2.5t3.5 3.5t2.5 5l25 77q3 10 -4 17l-62 19q-5 1 -11 1zM320 800l60 -512
q-38 -2 -65 -29.5t-27 -66.5v-96h544v96q0 25 -11.5 46t-32 34t-44.5 15l119 513h-543zM392 736h390l-15 -64h-159v-64h145l-15 -64h-130v-64h115l-15 -64h-100v-64h85l-14 -64h-235zM384 224h352q13 0 22.5 -9.5t9.5 -22.5v-32h-416v32q0 13 9.5 22.5t22.5 9.5z" />
    <glyph glyph-name="blender-solid" unicode="&#xe982;" 
d="M256 800q-40 0 -68 -28t-28 -68v-160q0 -40 28 -68t68 -28h104l20 -160q-39 -2 -65.5 -30t-26.5 -66v-96h544v96q0 25 -11.5 46t-32 34t-44.5 15l119 513h-607zM256 736h68l28 -224h-96q-13 0 -22.5 9.5t-9.5 22.5v160q0 13 9.5 22.5t22.5 9.5zM388 736h394l-15 -64h-159
v-64h145l-15 -64h-130v-64h115l-15 -64h-100v-64h85l-14 -64h-235zM384 224h352q13 0 22.5 -9.5t9.5 -22.5v-32h-416v32q0 13 9.5 22.5t22.5 9.5z" />
    <glyph glyph-name="blind-solid" unicode="&#xe983;" 
d="M464 864q-46 0 -79 -33t-33 -79t33 -79t79 -33t79 33t33 79t-33 79t-79 33zM464 800q20 0 34 -14t14 -34t-14 -34t-34 -14t-34 14t-14 34t14 34t34 14zM346 632q-26 -2 -43 -22l-58 -67q-12 -14 -15 -31l-22 -124l63 -11l22 124l59 67l25 -5l-38 -172q-6 -28 11 -51
l177 -244h79l-204 282l38 173l15 -3l24 -84q9 -31 39 -42l95 -36l124 -280l30 12l-127 286l13 35l-112 43l-25 84q-11 38 -49 45l-104 20q-9 2 -17 1zM335 287l-16 -62l-93 -129h79l74 101l4 19z" />
    <glyph glyph-name="blog-solid" unicode="&#xe984;" 
d="M465 832q-7 0 -12 -5t-5 -12v-63q0 -3 1 -5.5t2.5 -4l3 -3t4 -2.5t5.5 -2q150 -5 256 -111t112 -256q0 -7 4.5 -11.5t11.5 -4.5h63q7 0 12 5t5 12q-5 123 -67.5 228t-167.5 167.5t-228 67.5zM465 672q-7 0 -12 -5t-5 -12v-63q0 -7 4.5 -11.5t11.5 -5.5q83 -5 142.5 -64.5
t65.5 -142.5q0 -7 4.5 -11.5t11.5 -4.5h63q7 0 12 5t5 12q-5 80 -46 148t-109 109t-148 46zM176 640q-16 0 -16 -16v-352q0 -86 61 -147t147 -61t147 61t61 147t-61 147t-147 61q-16 0 -16 -16v-96q0 -16 16 -16q33 0 56.5 -23.5t23.5 -56.5t-23.5 -56.5t-56.5 -23.5
t-56.5 23.5t-23.5 56.5v352q0 16 -16 16h-96z" />
    <glyph glyph-name="blogger-b" unicode="&#xe985;" 
d="M416 736q-80 0 -136 -56t-56 -136v-224q0 -80 56 -136t136 -56h224q80 0 136 56t56 136v160q0 13 -9.5 22.5t-22.5 9.5h-32q-13 0 -22.5 9.5t-9.5 22.5q0 80 -56 136t-136 56h-128zM416 576h128q13 0 22.5 -9.5t9.5 -22.5t-9.5 -22.5t-22.5 -9.5h-128q-13 0 -22.5 9.5
t-9.5 22.5t9.5 22.5t22.5 9.5zM416 352h224q13 0 22.5 -9.5t9.5 -22.5t-9.5 -22.5t-22.5 -9.5h-224q-13 0 -22.5 9.5t-9.5 22.5t9.5 22.5t22.5 9.5z" />
    <glyph glyph-name="blogger" unicode="&#xe986;" 
d="M160 800v-704h704v704h-704zM224 736h576v-576h-576v576zM480 640q-46 0 -56.5 -1t-26.5 -8q-59 -23 -74 -86q-2 -10 -3 -89q0 -98 6 -117q10 -31 35 -53.5t54 -27.5q10 -2 91.5 -2t93.5 1q40 6 70 36q22 22 31 54q3 10 3 67.5t-1 61.5q-4 12 -11 17q-1 0 -4 0.5
t-7.5 0.5t-9.5 1q-13 0 -17 1t-8 3q-11 6 -11 25q0 21 -9 41t-26 38q-13 12 -26.5 21t-29.5 13q-4 1 -20.5 2t-43.5 1zM441 544h73q7 0 12.5 -3.5t9 -9t3.5 -12t-3.5 -12.5t-9 -9t-12.5 -3h-73q-11 0 -18 7t-7 17.5t7 17.5t18 7zM441 401h136q11 0 18 -7t7 -17
q0 -7 -3.5 -12.5t-9 -9t-12.5 -3.5h-136q-11 0 -18 7t-7 17.5t7 17.5t18 7z" />
    <glyph glyph-name="bluetooth-b" unicode="&#xe987;" 
d="M448 845v-319l-137 137l-46 -46l169 -169l-169 -169l46 -46l137 137v-319l55 54l160 160l22 23l-22 23l-137 137l137 137l22 23l-22 23l-160 160zM512 690l82 -82l-82 -82v164zM512 370l82 -82l-82 -82v164z" />
    <glyph glyph-name="bluetooth" unicode="&#xe988;" 
d="M512 896q-170 0 -255 -95q-97 -108 -97 -353t97 -353q85 -95 255 -95t255 95q97 108 97 353t-97 353q-85 95 -255 95zM512 832q141 0 207 -74q81 -90 81 -310t-81 -310q-66 -74 -207 -74t-207 74q-81 90 -81 310t81 310q66 74 207 74zM480 736v-210l-73 73l-46 -46
l105 -105l-105 -105l46 -46l73 73v-210l51 38l128 96l30 23l-131 131l131 131l-30 23l-128 96zM544 608l47 -35l-47 -47v82zM544 370l47 -47l-47 -35v82z" />
    <glyph glyph-name="bold-solid" unicode="&#xe989;" 
d="M512 736q67 0 113.5 -46.5t46.5 -113.5q0 -59 -42 -106q31 -11 54.5 -32.5t37.5 -52.5t14 -65q0 -67 -46.5 -113.5t-113.5 -46.5h-352v576h288zM288 480h224q41 0 68.5 27.5t27.5 68.5t-27.5 68.5t-68.5 27.5h-224v-192zM288 224h288q41 0 68.5 27.5t27.5 68.5
t-27.5 68.5t-68.5 27.5h-288v-192zM512 800h-352v-704h416q94 0 159 65t65 159q0 50 -21.5 95.5t-58.5 77.5q16 42 16 83q0 94 -65 159t-159 65zM352 608h160q14 0 23 -9t9 -23t-9 -23t-23 -9h-160v64zM352 352h224q14 0 23 -9t9 -23t-9 -23t-23 -9h-224v64z" />
    <glyph glyph-name="bolt-solid" unicode="&#xe98a;" 
d="M512 768v-288l128 -32l-125 -320h-3v257l-128 32l125 351h3zM576 832h-112l-16 -42l-124 -352l-24 -66l148 -37v-271h111l16 41l151 387l-150 38v302z" />
    <glyph glyph-name="bomb-solid" unicode="&#xe98b;" 
d="M791.5 772.5q-17.5 -0.5 -33.5 -6.5q-80 -26 -127 -110q-31 16 -65 16h-12l-52 -51q-61 28 -131 19q-91 -7 -160.5 -75.5t-79.5 -161.5q-5 -41 3 -82t26.5 -78t47.5 -67q80 -80 192 -80q22 0 35 3q94 12 161 80t79 163q5 74 -19 132l48 48v12q0 43 -24 78q37 73 98 94
q32 10 44 -10q4 -7 5 -19.5t-4.5 -35.5t-19.5 -51q-13 -24 -18.5 -35.5t-19.5 -50.5t-18.5 -72t-2.5 -84.5t17 -103.5l-89 -10l83 -42l-64 -90l99 55l39 -55v71l102 -35l-67 67l54 41h-70v138l-37 -75q-3 22 -5 42t-0.5 39t3 33.5t6.5 31.5t7.5 26.5t9.5 24.5t9.5 20.5
t10.5 19.5t8 15l1 1q52 104 16 166q-17 30 -52 40q-16 5 -33.5 4.5zM579 608q23 -5 39.5 -21.5t21.5 -39.5l-29 -29q-24 3 -41 20t-20 41zM403 579q51 0 87 -22q6 -26 20.5 -46.5t35.5 -34.5t46 -18q24 -48 19 -109q-7 -72 -59.5 -125.5t-122.5 -60.5q-50 -5 -95 10.5
t-78 50.5q-34 34 -50 79.5t-11 93.5q5 46 30.5 86t66 65t86.5 28q5 0 13.5 1.5t11.5 1.5z" />
    <glyph glyph-name="bone-solid" unicode="&#xe98c;" 
d="M640 832q-53 0 -90.5 -37.5t-37.5 -90.5q0 -42 34 -81l-209 -209q-39 34 -81 34q-53 0 -90.5 -37.5t-37.5 -90.5t37.5 -90.5t90.5 -37.5q0 -53 37.5 -90.5t90.5 -37.5t90.5 37.5t37.5 90.5q0 42 -34 81l209 209q39 -34 81 -34q53 0 90.5 37.5t37.5 90.5t-37.5 90.5
t-90.5 37.5q0 53 -37.5 90.5t-90.5 37.5zM640 768q27 0 45.5 -18.5t18.5 -45.5q0 -8 -3 -18l-6 -19l14 -13l9 -9l13 -14l19 6q10 3 18 3q27 0 45.5 -18.5t18.5 -45.5t-18.5 -45.5t-45.5 -18.5q-35 0 -54 31l-22 35l-28 -29l-253 -253l-29 -28l35 -22q31 -19 31 -54
q0 -27 -18.5 -45.5t-45.5 -18.5t-45.5 18.5t-18.5 45.5q0 8 3 18l6 19l-14 13l-9 9l-13 14l-19 -6q-10 -3 -18 -3q-27 0 -45.5 18.5t-18.5 45.5t18.5 45.5t45.5 18.5q35 0 54 -31l22 -35l28 29l253 253l29 28l-35 22q-31 19 -31 54q0 27 18.5 45.5t45.5 18.5z" />
    <glyph glyph-name="bong-solid" unicode="&#xe98d;" 
d="M384 832v-64h256v64h-256zM416 736v-246q-71 -29 -115.5 -92t-44.5 -142q0 -108 77 -183l10 -9h338l10 9q77 75 77 183q0 62 -37 126l62 61l22 -22l45 45l-90 90l-45 -45l22 -22l-55 -55q-36 37 -84 56v246h-64v-289l23 -7q29 -9 54 -26t43.5 -41t28.5 -53h-362
q15 43 48.5 75t77.5 45l23 7v289h-64zM320 256h384q0 -72 -52 -128h-280q-52 56 -52 128z" />
    <glyph glyph-name="book-dead-solid" unicode="&#xe98e;" 
d="M288 832q-39 0 -67.5 -28.5t-28.5 -67.5v-576q0 -39 28.5 -67.5t67.5 -28.5h544v768h-544zM288 768h480v-512h-480q-15 0 -32 -6v486q0 14 9 23t23 9zM512 672q-53 0 -89 -26.5t-49 -64t-18.5 -75t-3.5 -64.5l2 -26h62v-64h192v64h62q1 5 1.5 14.5t0 36t-4 50.5t-14 53.5
t-27 51t-46 36t-68.5 14.5zM448 544q13 0 22.5 -9.5t9.5 -22.5t-9.5 -22.5t-22.5 -9.5t-22.5 9.5t-9.5 22.5t9.5 22.5t22.5 9.5zM576 544q13 0 22.5 -9.5t9.5 -22.5t-9.5 -22.5t-22.5 -9.5t-22.5 9.5t-9.5 22.5t9.5 22.5t22.5 9.5zM512 480l32 -64h-64zM288 192h480v-64
h-480q-14 0 -23 9t-9 23t9 23t23 9z" />
    <glyph glyph-name="book-medical-solid" unicode="&#xe98f;" 
d="M288 832q-39 0 -67.5 -28.5t-28.5 -67.5v-576q0 -39 28.5 -67.5t67.5 -28.5h544v768h-544zM288 768h480v-512h-480q-15 0 -32 -6v486q0 14 9 23t23 9zM480 640v-96h-96v-64h96v-96h64v96h96v64h-96v96h-64zM288 192h480v-64h-480q-14 0 -23 9t-9 23t9 23t23 9z" />
    <glyph glyph-name="book-open-solid" unicode="&#xe990;" 
d="M96 768v-608h320q26 0 45 -19t19 -45h64q0 26 19 45t45 19h320v608h-320q-58 0 -96 -44q-38 44 -96 44h-320zM160 704h256q26 0 45 -19t19 -45h64q0 26 19 45t45 19h256v-480h-256q-58 0 -96 -44q-38 44 -96 44h-256v480zM480 576v-64h64v64h-64zM480 448v-64h64v64h-64z
M480 320v-64h64v64h-64z" />
    <glyph glyph-name="book-reader-solid" unicode="&#xe991;" 
d="M512 832q-79 0 -135.5 -56.5t-56.5 -135.5q0 -47 22 -89q-102 25 -214 25h-41l112 -448h25q134 0 215 -30q23 -8 39 -19l8 -5l9 -10h34l9 10q1 0 8 5q16 11 39 19q81 30 215 30h25l112 448h-41q-113 0 -213 -24q21 40 21 88q0 79 -56.5 135.5t-135.5 56.5zM512 768
q53 0 90.5 -37.5t37.5 -90.5t-37.5 -90.5t-90.5 -37.5t-90.5 37.5t-37.5 90.5t37.5 90.5t90.5 37.5zM170 508q140 -7 234 -42q47 -17 76 -36v-280q-15 7 -18 8q-77 29 -213 32zM854 508l-79 -318q-136 -3 -213 -32q-3 -1 -18 -8v280q29 19 75 36q94 35 235 42z" />
    <glyph glyph-name="book-solid" unicode="&#xe992;" 
d="M288 832q-39 0 -67.5 -28.5t-28.5 -67.5v-576q0 -39 28.5 -67.5t67.5 -28.5h544v768h-544zM288 768h480v-512h-480q-15 0 -32 -6v486q0 14 9 23t23 9zM352 672v-64h352v64h-352zM288 192h480v-64h-480q-14 0 -23 9t-9 23t9 23t23 9z" />
    <glyph glyph-name="bookmark-solid" unicode="&#xe993;" 
d="M224 800v-736l51 38l237 178l237 -178l51 -38v736h-576zM288 736h448v-544l-205 154l-19 14l-19 -14l-205 -154v544z" />
    <glyph glyph-name="bookmark" unicode="&#xe994;" 
d="M224 800v-736l51 38l237 178l237 -178l51 -38v736h-576zM288 736h448v-544l-205 154l-19 14l-19 -14l-205 -154v544z" />
    <glyph glyph-name="bootstrap" unicode="&#xe995;" 
d="M160 800v-704h704v704h-704zM224 736h576v-576h-576v576zM352 640v-384h57.5h48.5h38.5h32t24.5 0.5t20.5 1t16 1.5t14 2.5t11.5 2.5q78 24 78 99q0 14 -2.5 27.5t-9.5 29t-22.5 27t-37.5 17.5h-12q52 23 52 81v7.5t-1 11.5t-4 15.5t-7.5 16.5t-13 17t-19.5 13.5
t-27.5 10t-36.5 3.5h-200zM416 576h128q32 0 42.5 -13.5t10.5 -34.5q0 -14 -5.5 -24t-12.5 -14.5t-16.5 -7t-12.5 -2.5h-6h-128v96zM416 416h152q21 0 34.5 -5.5t18.5 -15t6.5 -15t1.5 -11.5q0 -18 -7.5 -29t-20 -14.5t-18 -4.5t-12.5 -1h-155v96z" />
    <glyph glyph-name="border-all-solid" unicode="&#xe996;" 
d="M160 800v-704h704v704h-704zM224 736h256v-256h-256v256zM544 736h256v-256h-256v256zM224 416h256v-256h-256v256zM544 416h256v-256h-256v256z" />
    <glyph glyph-name="border-none-solid" unicode="&#xe997;" 
d="M160 800v-128h64v64h64v64h-128zM352 800v-64h128v64h-128zM544 800v-64h128v64h-128zM736 800v-64h64v-64h64v128h-128zM480 672v-128h64v128h-64zM160 608v-128h64v128h-64zM800 608v-128h64v128h-64zM288 480v-64h128v64h-128zM480 480v-64h64v64h-64zM608 480v-64
h128v64h-128zM160 416v-128h64v128h-64zM800 416v-128h64v128h-64zM480 352v-128h64v128h-64zM160 224v-128h128v64h-64v64h-64zM800 224v-64h-64v-64h128v128h-64zM352 160v-64h128v64h-128zM544 160v-64h128v64h-128z" />
    <glyph glyph-name="border-style-solid" unicode="&#xe998;" 
d="M160 800v-704h128v64h-64v576h576v-64h64v128h-704zM800 608v-128h64v128h-64zM800 416v-128h64v128h-64zM800 224v-64h-64v-64h128v128h-64zM352 160v-64h128v64h-128zM544 160v-64h128v64h-128z" />
    <glyph glyph-name="bowling-ball-solid" unicode="&#xe999;" 
d="M512 864q-172 0 -294 -122t-122 -294t122 -294t294 -122t294 122t122 294t-122 294t-294 122zM512 800q146 0 249 -103t103 -249t-103 -249t-249 -103t-249 103t-103 249t103 249t249 103zM464 672q-20 0 -34 -14t-14 -34t14 -34t34 -14t34 14t14 34t-14 34t-34 14z
M336 544q-20 0 -34 -14t-14 -34t14 -34t34 -14t34 14t14 34t-14 34t-34 14zM496 512q-20 0 -34 -14t-14 -34t14 -34t34 -14t34 14t14 34t-14 34t-34 14z" />
    <glyph glyph-name="box-open-solid" unicode="&#xe99a;" 
d="M512 832l-160 -128h320zM272 800l-112 -149v-555h704v555l-112 149h-160l80 -64h48l48 -64h-512l48 64h48l80 64h-160zM224 608h576v-448h-576v448zM410 544q-13 -1 -21.5 -11.5t-7.5 -23.5t11.5 -21.5t23.5 -7.5h192q19 0 28 16t0 32t-28 16h-198z" />
    <glyph glyph-name="box-solid" unicode="&#xe99b;" 
d="M272 800l-10 -13l-102 -136v-555h704v555l-102 136l-10 13h-480zM304 736h176v-64h-224zM544 736h176l48 -64h-224v64zM224 608h576v-448h-576v448zM410 544q-13 -1 -21.5 -11.5t-7.5 -23.5t11.5 -21.5t23.5 -7.5h192q19 0 28 16t0 32t-28 16h-198z" />
    <glyph glyph-name="boxes-solid" unicode="&#xe99c;" 
d="M320 832v-352h384v352h-384zM384 768h64v-128l64 64l64 -64v128h64v-224h-256v224zM96 416v-352h384v352h-384zM544 416v-352h384v352h-384zM160 352h64v-128l64 64l64 -64v128h64v-224h-256v224zM608 352h64v-128l64 64l64 -64v128h64v-224h-256v224z" />
    <glyph glyph-name="braille-solid" unicode="&#xe99d;" 
d="M384 768q-27 0 -45.5 -18.5t-18.5 -45.5t18.5 -45.5t45.5 -18.5t45.5 18.5t18.5 45.5t-18.5 45.5t-45.5 18.5zM640 768q-27 0 -45.5 -18.5t-18.5 -45.5t18.5 -45.5t45.5 -18.5t45.5 18.5t18.5 45.5t-18.5 45.5t-45.5 18.5zM384 512q-27 0 -45.5 -18.5t-18.5 -45.5
t18.5 -45.5t45.5 -18.5t45.5 18.5t18.5 45.5t-18.5 45.5t-45.5 18.5zM640 512q-27 0 -45.5 -18.5t-18.5 -45.5t18.5 -45.5t45.5 -18.5t45.5 18.5t18.5 45.5t-18.5 45.5t-45.5 18.5zM384 256q-27 0 -45.5 -18.5t-18.5 -45.5t18.5 -45.5t45.5 -18.5t45.5 18.5t18.5 45.5
t-18.5 45.5t-45.5 18.5zM640 256q-27 0 -45.5 -18.5t-18.5 -45.5t18.5 -45.5t45.5 -18.5t45.5 18.5t18.5 45.5t-18.5 45.5t-45.5 18.5z" />
    <glyph glyph-name="brain-solid" unicode="&#xe99e;" 
d="M416 832q-45 0 -79.5 -29t-43.5 -73q-57 -10 -95 -53t-38 -101q0 -9 2 -22q-34 -50 -34 -106q0 -81 69 -141q-5 -20 -5 -35q0 -59 42.5 -101.5t101.5 -42.5h2q33 -64 94 -64q47 0 80 34q33 -34 80 -34q61 0 94 64h2q56 0 97 38.5t47 93.5q0 1 -0.5 3t-0.5 3t0.5 3t0.5 3
q0 5 -7 33q71 60 71 143q0 56 -34 106q2 13 2 22q0 58 -38 101t-95 53q-9 44 -43.5 73t-79.5 29q-57 0 -96 -45q-39 45 -96 45zM416 768q27 0 45.5 -18.5t18.5 -45.5v-64q0 -40 -28 -68t-68 -28v-64q53 0 96 33v-337q0 -20 -14 -34t-34 -14q-18 0 -31 11t-16 28l-6 31
l-31 -5q-6 -1 -12 -1q-33 0 -56.5 23.5t-23.5 56.5q0 15 5 28l1 2q16 39 58 48l-13 63q-51 -10 -83 -50q-32 36 -32 85q0 44 28 79l10 12l-3 16q-3 13 -3 21q0 40 28 68t68 28h32v32q0 27 18.5 45.5t45.5 18.5zM608 768q27 0 45.5 -18.5t18.5 -45.5v-32h32q40 0 68 -28
t28 -68q0 -8 -3 -21l-3 -16l10 -12q28 -35 28 -79q0 -58 -43 -96q-36 32 -81 32t-79 -29l41 -49q17 14 38 14q23 0 39.5 -15t19.5 -38q-2 -32 -24.5 -53.5t-54.5 -21.5q-6 0 -12 1l-31 5l-6 -31q-3 -17 -16 -28t-31 -11q-20 0 -34 14t-14 34v337q43 -33 96 -33v64
q-40 0 -68 28t-28 68v64q0 27 18.5 45.5t45.5 18.5z" />
    <glyph glyph-name="bread-slice-solid" unicode="&#xe99f;" 
d="M512 832q-83 0 -156.5 -24t-122.5 -63t-77 -88t-28 -99q0 -35 17 -61.5t47 -39.5v-265q0 -53 37.5 -90.5t90.5 -37.5h384q53 0 90.5 37.5t37.5 90.5v265q20 9 34 23.5t22 34.5t8 43q0 50 -28 99t-77 88t-122.5 63t-156.5 24zM512 768q59 0 112 -13.5t90 -35.5t64.5 -50
t40.5 -56.5t13 -54.5q0 -12 -4.5 -21.5t-13 -15.5t-19.5 -8l-27 -5v-316q0 -26 -19 -45t-45 -19h-384q-26 0 -45 19t-19 45v316l-27 5q-11 2 -19.5 8t-13 15.5t-4.5 21.5q0 33 21.5 69t60.5 68t101.5 52.5t136.5 20.5z" />
    <glyph glyph-name="briefcase-medical-solid" unicode="&#xe9a0;" 
d="M448 800q-26 0 -45 -19t-19 -45v-32h-192q-39 0 -67.5 -28.5t-28.5 -67.5v-480h832v480q0 39 -28.5 67.5t-67.5 28.5h-192v32q0 26 -19 45t-45 19h-128zM448 736h128v-32h-128v32zM192 640h640q14 0 23 -9t9 -23v-416h-704v416q0 14 9 23t23 9zM480 544v-96h-96v-64h96
v-96h64v96h96v64h-96v96h-64z" />
    <glyph glyph-name="briefcase-solid" unicode="&#xe9a1;" 
d="M512 864q-44 0 -78 -27t-45 -69h-293v-640h832v640h-293q-11 42 -45 69t-78 27zM512 800q39 0 56 -32h-112q17 32 56 32zM160 704h704v-288h-704v288zM512 512q-13 0 -22.5 -9.5t-9.5 -22.5t9.5 -22.5t22.5 -9.5t22.5 9.5t9.5 22.5t-9.5 22.5t-22.5 9.5zM160 352h704
v-160h-704v160z" />
    <glyph glyph-name="broadcast-tower-solid" unicode="&#xe9a2;" 
d="M230 826q-103 -100 -103 -245t103 -248l45 45q-84 85 -84 202.5t84 199.5zM794 823l-45 -46q85 -85 85 -201t-85 -201l45 -46q103 103 103 247t-103 247zM317 730q-62 -62 -62 -150.5t62 -150.5l45 45q-44 44 -44 106t44 105zM707 727l-45 -46q44 -43 44 -105t-44 -105
l45 -46q62 62 62 151t-62 151zM512 640q-27 0 -45.5 -18.5t-18.5 -45.5q0 -29 24 -49l-142 -399h-42v-64h128v64h-19l115 321l115 -321h-19v-64h128v64h-42l-142 399q24 20 24 49q0 27 -18.5 45.5t-45.5 18.5z" />
    <glyph glyph-name="broom-solid" unicode="&#xe9a3;" 
d="M905 887l-320 -320l-41 42l-1 1q-30 27 -73 27q-41 0 -70 -29l-5 -4l-16 -16l-11 -9l-292 -227l-28 -23l345 -345l23 28l226 290l1 -1l33 32l1 1q28 31 27.5 72.5t-29.5 70.5l-44 44l320 320zM470 573q16 0 29 -10l131 -131q9 -9 9.5 -25t-9.5 -30l-1 -1l-10 -9l-185 185
l11 11q10 10 25 10zM385 511l190 -190l-188 -240l-46 46l69 72l-46 44l-68 -71l-42 42l124 125l-45 45l-125 -124l-63 63z" />
    <glyph glyph-name="brush-solid" unicode="&#xe9a4;" 
d="M608 895l-23 -22l-178 -179l-23 -22l-32 -32l-73 -74l-18 -18l14 -22q20 -30 35 -63q14 -30 17 -46q1 -4 1 -7v-4q-35 -27 -96 -77q-110 -89 -131 -110q-37 -37 -37 -90.5t37 -90.5t90 -37t91 37q31 31 111 130q71 87 78 97l1 1h3.5t8.5 -1q19 -3 44 -16
q14 -7 29.5 -16.5t23.5 -14.5l8 -6l22 -16l19 19l74 73l32 32l22 23l179 178l22 23l-22 23l-306 306zM650 728q9 -1 15 -7q19 -19 -19 -108q-17 -40 7 -64q10 -11 36 -3.5t46.5 15t38.5 -5.5q15 -16 1 -58t-6 -50l1 -1l-57 -57l-260 260l44 44l2 -2q9 -12 27.5 -10t32 7.5
t25.5 13.5q43 28 66 26zM407 603l260 -260l-9 -9l-55 -56q-27 18 -46 28q-35 17 -62 22q-45 8 -70 -17l-1 -2l-1 -1q-38 -48 -80 -100q-81 -100 -106 -125q-19 -19 -45 -19t-45 19t-19 45t19 45q25 25 125 106l100 80l1 1l2 1q23 23 15 68q-4 23 -22 61q-8 18 -27 48l57 56z
M200 171q-15 0 -25 -10t-10 -25t10 -25t25 -10t25 10t10 25t-10 25t-25 10z" />
    <glyph glyph-name="btc" unicode="&#xe9a5;" 
d="M384 864v-96h-128v-640h128v-96h64v96h64v-96h64v96h48q73 0 124.5 51.5t51.5 124.5q0 49 -25 90.5t-67 64.5q60 53 60 133q0 73 -51.5 124.5t-124.5 51.5h-16v96h-64v-96h-64v96h-64zM320 704h272q47 0 79.5 -32.5t32.5 -79.5t-32.5 -79.5t-79.5 -32.5h-272v224z
M320 416h304q47 0 79.5 -32.5t32.5 -79.5t-32.5 -79.5t-79.5 -32.5h-304v224z" />
    <glyph glyph-name="buffer" unicode="&#xe9a6;" 
d="M512 800q-8 0 -15 -3l-395 -182q-11 -7 0 -14l395 -182q7 -3 15 -3t15 3l395 182q6 3 6 7t-6 7l-395 182q-4 2 -7.5 2.5t-7.5 0.5zM512 733l272 -125l-272 -125l-272 125zM155 498l-53 -27q-6 -3 -6 -7t6 -7l395 -198q7 -3 15 -3t15 3l395 198q6 3 6 7t-6 7l-53 27
l-342 -172q-3 -1 -5.5 -1.5t-4.5 -1t-5 -0.5q-8 0 -15 3zM155 338l-53 -27q-6 -3 -6 -7t6 -7l395 -198q7 -3 15 -3t15 3l395 198q6 3 6 7t-6 7l-53 27l-342 -172q-3 -1 -5.5 -1.5t-4.5 -1t-5 -0.5q-8 0 -15 3z" />
    <glyph glyph-name="bug-solid" unicode="&#xe9a7;" 
d="M343 855l-46 -46l62 -62q-70 -54 -107 -149l-78 39l-28 -58l88 -44q-10 -48 -10 -87q0 -18 1 -32h-97v-64h108q13 -55 33 -94l-96 -72l38 -52l94 70q85 -108 207 -108t207 108l94 -70l38 52l-96 72q20 39 33 94h108v64h-97q1 14 1 32q0 39 -10 87l88 44l-28 58l-78 -39
q-37 95 -107 149l62 62l-46 46l-74 -74q-45 19 -95 19t-95 -19zM512 736q97 0 164 -92q-80 -36 -164 -36t-164 36q67 92 164 92zM317 589q78 -37 163 -43v-383q-81 15 -136.5 95.5t-55.5 189.5q0 75 29 141zM707 589q29 -66 29 -141q0 -109 -55.5 -189.5t-136.5 -95.5v383
q85 6 163 43z" />
    <glyph glyph-name="building-solid" unicode="&#xe9a8;" 
d="M128 864v-832h352v128h64v-128h352v832h-768zM192 800h640v-704h-224v128h-192v-128h-224v704zM256 736v-64h128v64h-128zM448 736v-64h128v64h-128zM640 736v-64h128v64h-128zM256 608v-64h128v64h-128zM448 608v-64h128v64h-128zM640 608v-64h128v64h-128zM256 480v-64
h128v64h-128zM448 480v-64h128v64h-128zM640 480v-64h128v64h-128zM256 352v-64h128v64h-128zM448 352v-64h128v64h-128zM640 352v-64h128v64h-128zM256 224v-64h128v64h-128zM640 224v-64h128v64h-128z" />
    <glyph glyph-name="building" unicode="&#xe9a9;" 
d="M128 864v-832h352v128h64v-128h352v832h-768zM192 800h640v-704h-224v128h-192v-128h-224v704zM256 736v-64h128v64h-128zM448 736v-64h128v64h-128zM640 736v-64h128v64h-128zM256 608v-64h128v64h-128zM448 608v-64h128v64h-128zM640 608v-64h128v64h-128zM256 480v-64
h128v64h-128zM448 480v-64h128v64h-128zM640 480v-64h128v64h-128zM256 352v-64h128v64h-128zM448 352v-64h128v64h-128zM640 352v-64h128v64h-128zM256 224v-64h128v64h-128zM640 224v-64h128v64h-128z" />
    <glyph glyph-name="bullhorn-solid" unicode="&#xe9aa;" 
d="M896 863l-51 -37q-64 -47 -155 -94q-180 -92 -315 -92h-311v-292l1 -5l64 -224l7 -23h194l-11 41l-52 183h108q132 0 314 -93q41 -21 80 -44t57 -36l19 -13l51 -37v293q28 10 46 34.5t18 55.5t-18 55.5t-46 34.5v293zM832 744v-527q-60 41 -114 68q-188 96 -334 99v192
q145 3 335 100q53 27 113 68zM128 576h192v-192h-192v192zM139 320h61l45 -160h-61z" />
    <glyph glyph-name="bullseye-solid" unicode="&#xe9ab;" 
d="M512 864q-172 0 -294 -122t-122 -294t122 -294t294 -122t294 122t122 294t-122 294t-294 122zM512 832q159 0 271.5 -112.5t112.5 -271.5t-112.5 -271.5t-271.5 -112.5t-271.5 112.5t-112.5 271.5t112.5 271.5t271.5 112.5zM512 768q-132 0 -226 -94t-94 -226t94 -226
t226 -94t226 94t94 226t-94 226t-226 94zM512 704q106 0 181 -75t75 -181t-75 -181t-181 -75t-181 75t-75 181t75 181t181 75zM512 640q-79 0 -135.5 -56.5t-56.5 -135.5t56.5 -135.5t135.5 -56.5t135.5 56.5t56.5 135.5t-56.5 135.5t-135.5 56.5zM512 576q53 0 90.5 -37.5
t37.5 -90.5t-37.5 -90.5t-90.5 -37.5t-90.5 37.5t-37.5 90.5t37.5 90.5t90.5 37.5zM512 512q-27 0 -45.5 -18.5t-18.5 -45.5t18.5 -45.5t45.5 -18.5t45.5 18.5t18.5 45.5t-18.5 45.5t-45.5 18.5z" />
    <glyph glyph-name="burn-solid" unicode="&#xe9ac;" 
d="M513 849l-21 -18q-75 -61 -149 -150q-151 -181 -151 -329q0 -132 95 -212q83 -70 209 -75q2 0 7.5 -0.5t8.5 -0.5t8.5 0.5t7.5 0.5q126 5 209 75q95 80 95 212q0 129 -151 318q-33 41 -69.5 81t-57.5 59l-20 20zM511 760q66 -63 120 -130q59 -73 98 -148t39 -130
q0 -102 -73 -164q-17 -15 -36 -25q13 31 13 61q0 56 -11 110t-27 90.5t-31.5 65t-26.5 42.5l-11 14l-58 65l2 -87q0 -41 -5 -80q-5 -36 -11 -50q-1 -1 -3 -5q-12 4 -23 16l-18 22l-31 48l-24 -52q-42 -86 -42 -199q0 -30 13 -61q-19 10 -36 25q-73 62 -73 164q0 124 137 288
q56 68 118 120zM565 423q43 -93 43 -199q0 -40 -28 -68t-68 -28t-68 28t-28 68q0 61 19 125q29 -26 58 -26q23 0 39 16q10 10 19 30q8 19 14 54z" />
    <glyph glyph-name="buromobelexperte" unicode="&#xe9ad;" 
d="M160 800v-192h192v192h-192zM416 800v-192h192v192h-192zM672 800v-192h192v192h-192zM224 736h64v-64h-64v64zM480 736h64v-64h-64v64zM736 736h64v-64h-64v64zM160 544v-192h192v192h-192zM416 544v-192h192v192h-192zM672 544v-192h192v192h-192zM224 480h64v-64h-64
v64zM480 480h64v-64h-64v64zM736 480h64v-64h-64v64zM160 288v-192h192v192h-192zM416 288v-192h192v192h-192zM672 288v-192h192v192h-192zM224 224h64v-64h-64v64zM480 224h64v-64h-64v64z" />
    <glyph glyph-name="bus-alt-solid" unicode="&#xe9ae;" 
d="M384 864q-31 0 -55.5 -18t-34.5 -46h-6q-53 0 -90.5 -37.5t-37.5 -90.5v-160h-64v-96h64v-320q0 -13 9.5 -22.5t22.5 -9.5h96l11 32h426l11 -32h96q13 0 22.5 9.5t9.5 22.5v320h64v96h-64v160q0 53 -37.5 90.5t-90.5 37.5h-6q-10 28 -34.5 46t-55.5 18h-256zM384 800h256
q13 0 22.5 -9.5t9.5 -22.5v-32h64q27 0 45.5 -18.5t18.5 -45.5v-64h-576v64q0 27 18.5 45.5t45.5 18.5h64v32q0 13 9.5 22.5t22.5 9.5zM416 736v-64h192v64h-192zM224 544h256v-128h-256v128zM544 544h256v-128h-256v128zM224 352h576v-192h-576v192zM256 288v-64h128v64
h-128zM640 288v-64h128v64h-128z" />
    <glyph glyph-name="bus-solid" unicode="&#xe9af;" 
d="M288 832q-53 0 -90.5 -37.5t-37.5 -90.5v-160h-64v-96h64v-352q0 -13 9.5 -22.5t22.5 -9.5h96l11 32h426l11 -32h96q13 0 22.5 9.5t9.5 22.5v352h64v96h-64v160q0 53 -37.5 90.5t-90.5 37.5h-448zM288 768h448q27 0 45.5 -18.5t18.5 -45.5h-576q0 27 18.5 45.5t45.5 18.5
zM224 640h256v-224h-256v224zM544 640h256v-224h-256v224zM224 352h576v-192h-576v192zM256 288v-64h128v64h-128zM640 288v-64h128v64h-128z" />
    <glyph glyph-name="business-time-solid" unicode="&#xe9b0;" 
d="M448 864q-13 0 -25 -4.5t-21 -13.5q-6 -6 -10 -13.5t-6 -16t-2 -16.5v-32h-288v-640h358q-6 31 -6 64h-288v210q31 -18 64 -18h288q27 37 64 64h-352q-29 0 -46.5 17.5t-17.5 46.5v192h704v-192q0 -9 -1 -14q34 -11 65 -29v299h-288v32q0 6 -1 12.5t-3.5 12.5t-5.5 11.5
t-8 9.5q-9 9 -21 13.5t-25 4.5h-128zM448 800h128v-32h-128v32zM288 576v-96h64v96h-64zM672 576v-79q16 5 31 8q17 4 33 5v66h-64zM768 448q-106 0 -181 -75t-75 -181t75 -181t181 -75t181 75t75 181t-75 181t-181 75zM768 384q80 0 136 -56t56 -136t-56 -136t-136 -56
t-136 56t-56 136t56 136t136 56zM736 352v-192h160v64h-96v128h-64z" />
    <glyph glyph-name="buy-n-large" unicode="&#xe9b1;" 
d="M512 825q-130 0 -240.5 -50.5t-175 -137.5t-64.5 -189t64.5 -189t175 -137.5t240.5 -50.5q98 0 186.5 30t153 80.5t102.5 120t38 146.5q0 102 -64.5 189t-175 137.5t-240.5 50.5zM283 704h208q73 0 103 -31.5t22 -88.5q-1 -2 -3 -10q0 -3 -1 -4q-18 6 -35 6
q-53 0 -90.5 -37.5t-37.5 -90.5q0 -48 32 -84t79 -43q-50 -96 -184 -97h-216zM683 704h149l-89 -352h153l-32 -128h-300l24 97q49 4 83 40.5t34 86.5q0 22 -7.5 42.5t-20.5 37t-31 28.5zM384 608l-21 -88h38q24 0 44.5 16t25.5 38t-7.5 28t-41.5 6h-38zM526 531h52l25 -64
l16 64h54l-37 -157h-60l-18 62l-13 -62h-64zM340 424l-25 -104h44q26 0 43.5 10t24.5 39q5 20 -0.5 32.5t-16.5 17.5t-26 5h-44z" />
    <glyph glyph-name="buysellads" unicode="&#xe9b2;" 
d="M358 768l-7 -22l-189 -576l-14 -42h235l9 7l188 153l37 -136l7 -24h253l-15 42l-194 576l-8 22h-302zM405 704h209l174 -512h-116l-126 465l-6 24h-55l-7 -23l-85 -297l-12 -41h137l-157 -128h-125zM511 541l43 -157h-88z" />
    <glyph glyph-name="calculator-solid" unicode="&#xe9b3;" 
d="M192 864v-832h640v832h-640zM256 800h512v-704h-512v704zM320 736v-192h384v192h-384zM384 672h256v-64h-256v64zM352 480v-64h64v64h-64zM480 480v-64h64v64h-64zM608 480v-64h64v64h-64zM352 352v-64h64v64h-64zM480 352v-64h64v64h-64zM608 352v-64h64v64h-64z
M352 224v-64h64v64h-64zM480 224v-64h64v64h-64zM608 224v-64h64v64h-64z" />
    <glyph glyph-name="calendar-alt-solid" unicode="&#xe9b4;" 
d="M288 832v-32h-128v-704h704v704h-128v32h-64v-32h-320v32h-64zM224 736h64v-32h64v32h320v-32h64v32h64v-64h-576v64zM224 608h576v-448h-576v448zM416 544v-64h64v64h-64zM544 544v-64h64v64h-64zM672 544v-64h64v64h-64zM288 416v-64h64v64h-64zM416 416v-64h64v64h-64
zM544 416v-64h64v64h-64zM672 416v-64h64v64h-64zM288 288v-64h64v64h-64zM416 288v-64h64v64h-64zM544 288v-64h64v64h-64z" />
    </font>
</defs>
</svg>
